The Pussycat Dolls with A.R. Rahman Ft. Nicole Scherzinger Jai Ho! (You Are My Destiny) MTV Live HD

Discussion in 'MTV LIVE HD' started by Dfrazzer, Aug 19, 2015.

  1. Dfrazzer

    Dfrazzer Super Moderator Staff Member Super Moderator Capper V . I . P. Donor

    Joined:
    Nov 4, 2013
    Messages:
    5,160
    Likes Received:
    11,521
    [​IMG] [​IMG] [​IMG] [​IMG] [​IMG] [​IMG]

    Code:
    General
    ID : 1 (0x1)
    Complete name : C:\Users\Dfrazzer\Desktop\The Pussycat Dolls with A.R. Rahman Ft. Nicole Scherzinger Jai Ho! (You Are My Destiny) MTV Live HD 1080i HDMania.ts
    Format : MPEG-TS
    File size : 322 MiB
    Duration : 3mn 30s
    Overall bit rate mode : Variable
    Overall bit rate : 12.8 Mbps
    
    Video
    ID : 100 (0x64)
    Menu ID : 2 (0x2)
    Format : AVC
    Format/Info : Advanced Video Codec
    Format profile : High@L4.0
    Format settings, CABAC : Yes
    Format settings, ReFrames : 2 frames
    Codec ID : 27
    Duration : 3mn 30s
    Bit rate mode : Variable
    Bit rate : 12.0 Mbps
    Maximum bit rate : 24.0 Mbps
    Width : 1 920 pixels
    Height : 1 080 pixels
    Display aspect ratio : 16:9
    Frame rate : 25.000 fps
    Color space : YUV
    Chroma subsampling : 4:2:0
    Bit depth : 8 bits
    Scan type : Interlaced
    Scan order : Top Field First
    Bits/(Pixel*Frame) : 0.231
    Stream size : 300 MiB (93%)
    Color primaries : BT.709
    Transfer characteristics : BT.709
    Matrix coefficients : BT.709
    
    Audio
    ID : 101 (0x65)
    Menu ID : 2 (0x2)
    Format : AAC
    Format/Info : Advanced Audio Codec
    Format version : Version 4
    Format profile : LC
    Muxing mode : ADTS
    Codec ID : 15
    Duration : 3mn 30s
    Bit rate mode : Variable
    Bit rate : 220 Kbps
    Channel(s) : 2 channels
    Channel positions : Front: L R
    Sampling rate : 48.0 KHz
    Compression mode : Lossy
    Stream size : 5.52 MiB (2%)
    
    Hidden Content:
    You must reply before you can see the hidden data contained here.
    Capped by me.
     
  2. Dreamer

    Dreamer Lana Del Rey ♥ Halsey ♥ Iggy Azalea Capper V . I . P. Uploader

    Joined:
    Dec 4, 2014
    Messages:
    3,012
    Likes Received:
    5,299
    OMG Thank you so much :D:p
     
  3. DETOX

    DETOX Don't leave me locked in your heart... ♫ V . I . P. Uploader

    Joined:
    Feb 20, 2014
    Messages:
    4,450
    Likes Received:
    36,105
    Thank you!
     
  4. ScherzyBoy

    ScherzyBoy Well-Known Member V . I . P. Uploader

    Joined:
    May 14, 2015
    Messages:
    1,113
    Likes Received:
    1,086
  5. getteg

    getteg Active Member

    Joined:
    Sep 24, 2014
    Messages:
    548
    Likes Received:
    31
    thank you
     
  6. rhea

    rhea Well-Known Member

    Joined:
    Jan 6, 2014
    Messages:
    7,550
    Likes Received:
    903
    thank you so much :)
     
  7. STONECOLD2020

    STONECOLD2020 Member

    Joined:
    Nov 6, 2015
    Messages:
    269
    Likes Received:
    16
    Thank you so much
     
  8. J_Pablo

    J_Pablo Active Member

    Joined:
    Nov 27, 2013
    Messages:
    544
    Likes Received:
    135
    Thank you for share!
     
  9. nocturne111

    nocturne111 Member

    Joined:
    Jan 3, 2016
    Messages:
    40
    Likes Received:
    0
    thanks you are simply the best
     
  10. ytyh

    ytyh Member

    Joined:
    Mar 30, 2014
    Messages:
    432
    Likes Received:
    4
    Thank you
     
  11. Pavulon

    Pavulon Well-Known Member Donor

    Joined:
    Mar 22, 2016
    Messages:
    4,272
    Likes Received:
    735
    thanks
     
  12. Johan Pinzon

    Johan Pinzon Member

    Joined:
    Aug 15, 2016
    Messages:
    347
    Likes Received:
    18
  13. rm-q

    rm-q New Member

    Joined:
    Sep 10, 2016
    Messages:
    21
    Likes Received:
    3
    Thank you
     
  14. carloskoschel

    carloskoschel Active Member

    Joined:
    Jul 22, 2016
    Messages:
    444
    Likes Received:
    28
    thanks ss
     
  15. Praveen867

    Praveen867 Member

    Joined:
    Nov 14, 2016
    Messages:
    611
    Likes Received:
    17
  16. D3mon86

    D3mon86 Member

    Joined:
    Dec 19, 2016
    Messages:
    845
    Likes Received:
    12
    thanks
     
  17. lugurod

    lugurod Member

    Joined:
    Oct 4, 2014
    Messages:
    146
    Likes Received:
    9
    EXELENTE GRACIAS
     
  18. IWNLYD

    IWNLYD Member

    Joined:
    Feb 28, 2017
    Messages:
    217
    Likes Received:
    1
    Thank you!
     
  19. hanshermann

    hanshermann Well-Known Member Uploader

    Joined:
    Aug 24, 2016
    Messages:
    5,835
    Likes Received:
    7,423
    wahts taht