The Pussycat Dolls - Stick With U (MHD 1080i)

Discussion in 'MHD' started by hd1026, Sep 19, 2017.

  1. hd1026

    hd1026 Member Donor

    Joined:
    Jul 31, 2017
    Messages:
    51
    Likes Received:
    13
    [​IMG]

    General
    ID : 1 (0x1)
    Complete name : E:\HD MV\The Pussycat Dolls - Stick With U (MHD 1080i).ts
    Format : MPEG-TS
    File size : 384 MiB
    Duration : 3 min 31 s
    Overall bit rate mode : Variable
    Overall bit rate : 15.2 Mb/s
    Law rating : TV-14

    Video
    ID : 17 (0x11)
    Menu ID : 1 (0x1)
    Format : MPEG Video
    Format version : Version 2
    Format profile : Main@High
    Format settings, BVOP : Yes
    Format settings, Matrix : Custom
    Format settings, GOP : Variable
    Codec ID : 2
    Duration : 3 min 31 s
    Bit rate mode : Variable
    Bit rate : 14.1 Mb/s
    Maximum bit rate : 19.0 Mb/s
    Width : 1 920 pixels
    Height : 1 080 pixels
    Display aspect ratio : 16:9
    Frame rate : 29.970 (30000/1001) FPS
    Standard : Component
    Color space : YUV
    Chroma subsampling : 4:2:0
    Bit depth : 8 bits
    Compression mode : Lossy
    Bits/(Pixel*Frame) : 0.227
    Stream size : 355 MiB (93%)
    Color primaries : BT.709
    Transfer characteristics : BT.709
    Matrix coefficients : BT.709

    Audio
    ID : 20 (0x14)
    Menu ID : 1 (0x1)
    Format : AC-3
    Format/Info : Audio Coding 3
    Format settings, Endianness : Big
    Codec ID : 129
    Duration : 3 min 31 s
    Bit rate mode : Constant
    Bit rate : 384 kb/s
    Channel(s) : 2 channels
    Channel positions : Front: L R
    Sampling rate : 48.0 kHz
    Frame rate : 31.250 FPS (1536 SPF)
    Bit depth : 16 bits
    Compression mode : Lossy
    Delay relative to video : -528 ms
    Stream size : 9.67 MiB (3%)
    Language : English
    Service kind : Complete Main

    Text #1
    ID : 17 (0x11)-CC1
    Menu ID : 1 (0x1)
    Format : EIA-608
    Muxing mode : A/53 / DTVCC Transport
    Muxing mode, more info : Muxed in Video #1
    Duration : 3 min 31 s
    Bit rate mode : Constant
    Stream size : 0.00 Byte (0%)
    CaptionServiceName : CC1

    Text #2
    ID : 17 (0x11)-1
    Menu ID : 1 (0x1)
    Format : EIA-708
    Muxing mode : A/53 / DTVCC Transport
    Muxing mode, more info : Muxed in Video #1
    Duration : 3 min 31 s
    Bit rate mode : Constant
    Stream size : 0.00 Byte (0%)

    Download

    Hidden Content:
    You must reply before you can see the hidden data contained here.
     
    curg and DiVenturas like this.
  2. Pedro Correia

    Pedro Correia Well-Known Member

    Joined:
    Apr 17, 2014
    Messages:
    1,243
    Likes Received:
    132
    Thenk you so much!
     
  3. CharmedDream

    CharmedDream Active Member

    Joined:
    Feb 19, 2017
    Messages:
    314
    Likes Received:
    194
  4. DiVenturas

    DiVenturas Well-Known Member

    Joined:
    Oct 21, 2015
    Messages:
    2,766
    Likes Received:
    162
  5. IWNLYD

    IWNLYD Member

    Joined:
    Feb 28, 2017
    Messages:
    235
    Likes Received:
    3
    thanks
     
  6. marco25

    marco25 Well-Known Member

    Joined:
    Oct 5, 2016
    Messages:
    1,420
    Likes Received:
    541
    thanks
     
  7. curg

    curg Well-Known Member

    Joined:
    Dec 6, 2013
    Messages:
    1,103
    Likes Received:
    35
    thank you
     
  8. paulofelipp

    paulofelipp Member

    Joined:
    May 15, 2018
    Messages:
    590
    Likes Received:
    16