The Pussycat Dolls - Don't cha (VIVAHD-1080i-DD2.0-Djodjara)-HDMania

Discussion in 'VIVA HD' started by Djodjara, Jan 31, 2015.

  1. Djodjara

    Djodjara Gwen Fan Capper

    Joined:
    Sep 6, 2014
    Messages:
    712
    Likes Received:
    1,167
    The Pussycat Dolls - Don't cha (VIVA HD-1080i-Djodjara)-HDMania

    [​IMG]
    [​IMG]

    General:
    ID : 1 (0x1)
    Format : MPEG-TS
    File size : 298 MiB
    Duration : 4mn 36s
    Overall bit rate mode : Variable
    Overall bit rate : 9 048 Kbps

    Video:
    ID : 528 (0x210)
    Menu ID : 1 (0x1)
    Format : AVC
    Format/Info : Advanced Video Codec
    Format profile : [email protected]
    Format settings, CABAC : Yes
    Format settings, ReFrames : 3 frames
    Codec ID : 27
    Duration : 4mn 36s
    Bit rate : 8 148 Kbps
    Width : 1 920 pixels
    Height : 1 080 pixels
    Display aspect ratio : 16:9
    Frame rate : 25.000 fps
    Standard : Component
    Color space : YUV
    Chroma subsampling : 4:2:0
    Bit depth : 8 bits
    Scan type : Interlaced
    Scan order : Top Field First
    Bits/(Pixel*Frame) : 0.157
    Stream size : 268 MiB (90%)
    Color primaries : BT.709
    Transfer characteristics : BT.709
    Matrix coefficients : BT.709
    Color range : Limited

    Audio #1:
    ID : 529 (0x211)
    Menu ID : 1 (0x1)
    Format : MPEG Audio
    Format version : Version 1
    Format profile : Layer 2
    Codec ID : 3
    Duration : 4mn 36s
    Bit rate mode : Constant
    Bit rate : 256 Kbps
    Channel(s) : 2 channels
    Sampling rate : 48.0 KHz
    Compression mode : Lossy
    Stream size : 8.43 MiB (3%)
    Language : German

    Audio #2:
    ID : 539 (0x21B)
    Menu ID : 1 (0x1)
    Format : AC-3
    Format/Info : Audio Coding 3
    Mode extension : HI (hearing impaired)
    Format settings, Endianness : Big
    Codec ID : 6
    Duration : 4mn 36s
    Bit rate mode : Constant
    Bit rate : 192 Kbps
    Channel(s) : 2 channels
    Channel positions : Front: L R
    Sampling rate : 48.0 KHz
    Bit depth : 16 bits
    Compression mode : Lossy
    Stream size : 6.32 MiB (2%)
    Language : German

    Hidden Content:
    You must reply before you can see the hidden data contained here.
     
    amir, faizan, atakano and 3 others like this.
  2. Donkey123

    Donkey123 Member

    Joined:
    May 4, 2014
    Messages:
    141
    Likes Received:
    5
    thank you
     
  3. Dreamer

    Dreamer Lana Del Rey ♥ Capper Uploader

    Joined:
    Dec 4, 2014
    Messages:
    2,480
    Likes Received:
    2,646
    Thank u
     
  4. DETOX

    DETOX Well-Known Member V . I . P. Uploader

    Joined:
    Feb 20, 2014
    Messages:
    2,834
    Likes Received:
    16,604
    Than yo so much! :love:
     
  5. noobster

    noobster Member

    Joined:
    Mar 16, 2014
    Messages:
    129
    Likes Received:
    2
    cheers dude
     
  6. Grailen

    Grailen Well-Known Member

    Joined:
    Oct 8, 2013
    Messages:
    561
    Likes Received:
    652
    thank you
     
  7. mike gunen

    mike gunen Member

    Joined:
    Nov 9, 2013
    Messages:
    709
    Likes Received:
    13
    thank you
     
  8. rhea

    rhea Well-Known Member

    Joined:
    Jan 6, 2014
    Messages:
    5,648
    Likes Received:
    365
    thank you so much
     
  9. withcap

    withcap Well-Known Member

    Joined:
    Oct 29, 2013
    Messages:
    1,440
    Likes Received:
    76
    Thank you!
     
  10. Crusha

    Crusha Well-Known Member Capper

    Joined:
    Oct 15, 2014
    Messages:
    2,350
    Likes Received:
    2,251
    thank you very much
     
  11. luvmv

    luvmv Member

    Joined:
    Sep 7, 2014
    Messages:
    75
    Likes Received:
    0
    thank you
     
  12. getteg

    getteg Active Member

    Joined:
    Sep 24, 2014
    Messages:
    537
    Likes Received:
    30
    koool hhi
     
  13. slill

    slill Member

    Joined:
    Jul 25, 2014
    Messages:
    929
    Likes Received:
    12
    thanks
     
  14. indreams2011

    indreams2011 Member

    Joined:
    Dec 10, 2014
    Messages:
    663
    Likes Received:
    19
     
  15. nickindallas

    nickindallas Member

    Joined:
    Feb 15, 2015
    Messages:
    75
    Likes Received:
    0
    thank you
     
  16. faz

    faz Member

    Joined:
    Jan 9, 2014
    Messages:
    265
    Likes Received:
    1
    Thanks you
     
  17. atakano

    atakano Member

    Joined:
    Oct 6, 2014
    Messages:
    219
    Likes Received:
    3
    thanks for video
     
  18. barnabas11

    barnabas11 Member

    Joined:
    Jul 4, 2014
    Messages:
    217
    Likes Received:
    10
    Thanks for sharing.
     
  19. ytyh

    ytyh Member

    Joined:
    Mar 30, 2014
    Messages:
    432
    Likes Received:
    4
    Thank you for PCD
     
  20. Tumate20

    Tumate20 Well-Known Member

    Joined:
    Sep 13, 2014
    Messages:
    159
    Likes Received:
    340
    Thank you so much