The Pussycat Dolls - Don't Cha (MTV GERMANY HD-1080i-DD2.0-Olgold)

Discussion in 'MTV HD' started by RAVIXX, Feb 24, 2015.

  1. RAVIXX

    RAVIXX Well-Known Member V . I . P. Uploader

    Joined:
    Feb 20, 2014
    Messages:
    6,455
    Likes Received:
    81,412


    The Pussycat Dolls - Don't Cha (MTV GERMANY HD-1080i-DD2.0-Olgold)

    [​IMG]

    General
    ID : 16 (0x10)
    Complete name : The Pussycat Dolls - Don't Cha (MTV GERMANY HD-1080i-DD2.0-Olgold).ts
    Format : MPEG-TS
    File size : 464 MiB
    Duration : 4mn 34s
    Overall bit rate mode : Variable
    Overall bit rate : 14.2 Mbps

    Video
    ID : 1023 (0x3FF)
    Menu ID : 10103 (0x2777)
    Format : AVC
    Format/Info : Advanced Video Codec
    Format profile : High@L4.0
    Format settings, CABAC : Yes
    Format settings, ReFrames : 3 frames
    Codec ID : 27
    Duration : 4mn 34s
    Bit rate : 13.3 Mbps
    Width : 1 440 pixels
    Height : 1 080 pixels
    Display aspect ratio : 16:9
    Frame rate : 25.000 fps
    Standard : Component
    Color space : YUV
    Chroma subsampling : 4:2:0
    Bit depth : 8 bits
    Scan type : Interlaced
    Scan order : Top Field First
    Bits/(Pixel*Frame) : 0.341
    Stream size : 434 MiB (94%)
    Color primaries : BT.709
    Transfer characteristics : BT.709
    Matrix coefficients : BT.709
    Color range : Limited

    Audio
    ID : 1027 (0x403)
    Menu ID : 10103 (0x2777)
    Format : AC-3
    Format/Info : Audio Coding 3
    Mode extension : HI (hearing impaired)
    Format settings, Endianness : Big
    Codec ID : 6
    Duration : 4mn 34s
    Bit rate mode : Constant
    Bit rate : 192 Kbps
    Channel(s) : 2 channels
    Channel positions : Front: L R
    Sampling rate : 48.0 KHz
    Bit depth : 16 bits
    Compression mode : Lossy
    Delay relative to video : 89ms
    Stream size : 6.28 MiB (1%)
    Language : German
    Language, more info : Clean effects

    Credits to Olgold

    SERVER: MEGA / PASSWORD: DETOX

    Hidden Content:
    You must reply before you can see the hidden data contained here.
     
  2. Loading...


  3. rhea

    rhea Well-Known Member

    Joined:
    Jan 6, 2014
    Messages:
    10,735
    Likes Received:
    2,001
    thank you so much :)
     
  4. faz

    faz Member

    Joined:
    Jan 9, 2014
    Messages:
    352
    Likes Received:
    12
    thank you
     
  5. ronald

    ronald Member

    Joined:
    Dec 27, 2013
    Messages:
    57
    Likes Received:
    0
    thank u
     
  6. Danielcha

    Danielcha Active Member

    Joined:
    Sep 20, 2014
    Messages:
    763
    Likes Received:
    66
    Thanks so much
     
  7. Tumate20

    Tumate20 Well-Known Member

    Joined:
    Sep 13, 2014
    Messages:
    190
    Likes Received:
    593
    Thanks You
     
  8. lukierrywhere

    lukierrywhere Member

    Joined:
    May 1, 2015
    Messages:
    214
    Likes Received:
    8
    thank you
     
  9. sagor

    sagor Member

    Joined:
    Mar 24, 2014
    Messages:
    59
    Likes Received:
    2
    thanx man....
     
  10. ciro93dolls

    ciro93dolls Well-Known Member

    Joined:
    Sep 22, 2014
    Messages:
    231
    Likes Received:
    264
    thanks you !
     
  11. janito33

    janito33 Active Member

    Joined:
    Dec 10, 2014
    Messages:
    824
    Likes Received:
    28
    buen video gracias
     
  12. hanibal.king

    hanibal.king Member

    Joined:
    Jun 4, 2015
    Messages:
    55
    Likes Received:
    0
    thanks for the video
     
  13. Vinny

    Vinny Well-Known Member

    Joined:
    Dec 26, 2013
    Messages:
    4,627
    Likes Received:
    71
    Thanks! ;D
     
  14. Himperios

    Himperios Member

    Joined:
    Oct 11, 2015
    Messages:
    317
    Likes Received:
    19
    good.
     
    Last edited by a moderator: Nov 23, 2015
  15. nolynexor88

    nolynexor88 nolynexor88

    Joined:
    Sep 29, 2015
    Messages:
    1,985
    Likes Received:
    187
     
  16. Attention

    Attention Active Member

    Joined:
    Nov 30, 2013
    Messages:
    559
    Likes Received:
    37
  17. kin

    kin Member

    Joined:
    Dec 2, 2015
    Messages:
    64
    Likes Received:
    2
    thank you
     
  18. Spartan

    Spartan Member

    Joined:
    Dec 8, 2015
    Messages:
    56
    Likes Received:
    4
    thanks
     
  19. luvmv

    luvmv Member

    Joined:
    Sep 7, 2014
    Messages:
    104
    Likes Received:
    0
    thanks
     
  20. meisam.sch

    meisam.sch Well-Known Member

    Joined:
    Jan 18, 2016
    Messages:
    1,156
    Likes Received:
    53
  21. Jrec

    Jrec Active Member

    Joined:
    May 11, 2016
    Messages:
    710
    Likes Received:
    52
    Thanks