HDTV The Oprah Conversation - Mariah Carey (S01E05) [1080P HD MKV & MP4]

Discussion in 'Interviews / TV shows / Others' started by princebasil, Nov 29, 2020.

  1. princebasil

    princebasil Well-Known Member Donor

    Joined:
    Jul 4, 2017
    Messages:
    1,313
    Likes Received:
    1,171
    [​IMG][​IMG][​IMG]
    File Size: 5.54 GB
    Host: Google Drive
    [​IMG]
    Code:
    MKV Version
    
    Unique ID                      : 294833534645620690641012825483757074000 (0xDDCEDF907B1AD4844882FF5FC40DB650)
    Complete name                  : The Oprah Conversation - S01E05 - Mariah Carey.mkv
    Format                         : Matroska
    Format version                 : Version 4 / Version 2
    File size                      : 5.55 GiB
    Duration                       : 1 h 19 min
    Overall bit rate               : 9 942 kb/s
    Movie name                     : Mariah Carey
    Track name/Position            : 5
    Writing application            : mkvmerge v50.0.0 ('Awakenings') 64-bit
    Writing library                : libebml v1.4.0 + libmatroska v1.6.2
    ARTIST                         : The Oprah Conversation
    DATE_RECORDED                  : 2020
    GENRE                          : TV Show
    
    Video
    ID                             : 1
    Format                         : AVC
    Format/Info                    : Advanced Video Codec
    Format profile                 : High@L4
    Format settings, CABAC         : Yes
    Format settings, RefFrames     : 4 frames
    Codec ID                       : V_MPEG4/ISO/AVC
    Duration                       : 1 h 19 min
    Bit rate                       : 9 806 kb/s
    Width                          : 1 920 pixels
    Height                         : 1 080 pixels
    Display aspect ratio           : 16:9
    Frame rate mode                : Constant
    Frame rate                     : 23.976 (24000/1001) FPS
    Color space                    : YUV
    Chroma subsampling             : 4:2:0
    Bit depth                      : 8 bits
    Scan type                      : Progressive
    Bits/(Pixel*Frame)             : 0.197
    Stream size                    : 5.48 GiB (99%)
    Language                       : English
    Default                        : Yes
    Forced                         : No
    Color range                    : Limited
    Color primaries                : BT.709
    Transfer characteristics       : BT.709
    Matrix coefficients            : BT.709
    
    Audio
    ID                             : 2
    Format                         : AAC
    Format/Info                    : Advanced Audio Codec
    Format profile                 : LC
    Codec ID                       : A_AAC
    Duration                       : 1 h 19 min
    Bit rate                       : 125 kb/s
    Channel(s)                     : 2 channels
    Channel positions              : Front: L R
    Sampling rate                  : 48.0 kHz
    Frame rate                     : 46.875 FPS (1024 SPF)
    Compression mode               : Lossy
    Stream size                    : 71.3 MiB (1%)
    Language                       : English
    Default                        : Yes
    Forced                         : No
    
    Text #1
    ID                             : 3
    Format                         : UTF-8
    Codec ID                       : S_TEXT/UTF8
    Codec ID/Info                  : UTF-8 Plain Text
    Duration                       : 1 h 19 min
    Bit rate                       : 113 b/s
    Count of elements              : 1887
    Stream size                    : 66.2 KiB (0%)
    Title                          : English
    Language                       : English
    Default                        : No
    Forced                         : No
    
    Text #2
    ID                             : 4
    Format                         : UTF-8
    Codec ID                       : S_TEXT/UTF8
    Codec ID/Info                  : UTF-8 Plain Text
    Duration                       : 1 h 19 min
    Bit rate                       : 115 b/s
    Count of elements              : 1907
    Stream size                    : 67.5 KiB (0%)
    Title                          : English (SDH)
    Language                       : English
    Default                        : No
    Forced                         : No
    
    Text #3
    ID                             : 5
    Format                         : UTF-8
    Codec ID                       : S_TEXT/UTF8
    Codec ID/Info                  : UTF-8 Plain Text
    Duration                       : 1 h 19 min
    Bit rate                       : 147 b/s
    Count of elements              : 1452
    Stream size                    : 86.4 KiB (0%)
    Title                          : العربية
    Language                       : Arabic
    Default                        : No
    Forced                         : No
    
    Text #4
    ID                             : 6
    Format                         : UTF-8
    Codec ID                       : S_TEXT/UTF8
    Codec ID/Info                  : UTF-8 Plain Text
    Duration                       : 1 h 19 min
    Bit rate                       : 164 b/s
    Count of elements              : 1396
    Stream size                    : 96.0 KiB (0%)
    Title                          : български
    Language                       : Bulgarian
    Default                        : No
    Forced                         : No
    
    Text #5
    ID                             : 7
    Format                         : UTF-8
    Codec ID                       : S_TEXT/UTF8
    Codec ID/Info                  : UTF-8 Plain Text
    Duration                       : 1 h 19 min
    Bit rate                       : 103 b/s
    Count of elements              : 1285
    Stream size                    : 60.6 KiB (0%)
    Title                          : Čeština
    Language                       : Czech
    Default                        : No
    Forced                         : No
    
    Text #6
    ID                             : 8
    Format                         : UTF-8
    Codec ID                       : S_TEXT/UTF8
    Codec ID/Info                  : UTF-8 Plain Text
    Duration                       : 1 h 19 min
    Bit rate                       : 104 b/s
    Count of elements              : 1285
    Stream size                    : 61.2 KiB (0%)
    Title                          : dansk
    Language                       : Danish
    Default                        : No
    Forced                         : No
    
    Text #7
    ID                             : 9
    Format                         : UTF-8
    Codec ID                       : S_TEXT/UTF8
    Codec ID/Info                  : UTF-8 Plain Text
    Duration                       : 1 h 19 min
    Bit rate                       : 102 b/s
    Count of elements              : 1431
    Stream size                    : 59.8 KiB (0%)
    Title                          : Deutsch
    Language                       : German
    Default                        : No
    Forced                         : No
    
    Text #8
    ID                             : 10
    Format                         : UTF-8
    Codec ID                       : S_TEXT/UTF8
    Codec ID/Info                  : UTF-8 Plain Text
    Duration                       : 1 h 19 min
    Bit rate                       : 187 b/s
    Count of elements              : 1422
    Stream size                    : 110 KiB (0%)
    Title                          : Ελληνικά
    Language                       : Greek
    Default                        : No
    Forced                         : No
    
    Text #9
    ID                             : 11
    Format                         : UTF-8
    Codec ID                       : S_TEXT/UTF8
    Codec ID/Info                  : UTF-8 Plain Text
    Duration                       : 1 h 19 min
    Bit rate                       : 105 b/s
    Count of elements              : 1434
    Stream size                    : 61.5 KiB (0%)
    Title                          : Español (España)
    Language                       : Spanish
    Default                        : No
    Forced                         : No
    
    Text #10
    ID                             : 12
    Format                         : UTF-8
    Codec ID                       : S_TEXT/UTF8
    Codec ID/Info                  : UTF-8 Plain Text
    Duration                       : 1 h 19 min
    Bit rate                       : 107 b/s
    Count of elements              : 1327
    Stream size                    : 63.1 KiB (0%)
    Title                          : Español (Latinoamérica)
    Language                       : Spanish
    Default                        : No
    Forced                         : No
    
    Text #11
    ID                             : 13
    Format                         : UTF-8
    Codec ID                       : S_TEXT/UTF8
    Codec ID/Info                  : UTF-8 Plain Text
    Duration                       : 1 h 19 min
    Bit rate                       : 102 b/s
    Count of elements              : 1311
    Stream size                    : 59.9 KiB (0%)
    Title                          : eesti
    Language                       : Estonian
    Default                        : No
    Forced                         : No
    
    Text #12
    ID                             : 14
    Format                         : UTF-8
    Codec ID                       : S_TEXT/UTF8
    Codec ID/Info                  : UTF-8 Plain Text
    Duration                       : 1 h 19 min
    Bit rate                       : 99 b/s
    Count of elements              : 1448
    Stream size                    : 57.9 KiB (0%)
    Title                          : Suomi
    Language                       : Finnish
    Default                        : No
    Forced                         : No
    
    Text #13
    ID                             : 15
    Format                         : UTF-8
    Codec ID                       : S_TEXT/UTF8
    Codec ID/Info                  : UTF-8 Plain Text
    Duration                       : 1 h 19 min
    Bit rate                       : 103 b/s
    Count of elements              : 1435
    Stream size                    : 60.4 KiB (0%)
    Title                          : Français (Canada)
    Language                       : French
    Default                        : No
    Forced                         : No
    
    Text #14
    ID                             : 16
    Format                         : UTF-8
    Codec ID                       : S_TEXT/UTF8
    Codec ID/Info                  : UTF-8 Plain Text
    Duration                       : 1 h 19 min
    Bit rate                       : 103 b/s
    Count of elements              : 1434
    Stream size                    : 60.6 KiB (0%)
    Title                          : Français (France)
    Language                       : French
    Default                        : No
    Forced                         : No
    
    Text #15
    ID                             : 17
    Format                         : UTF-8
    Codec ID                       : S_TEXT/UTF8
    Codec ID/Info                  : UTF-8 Plain Text
    Duration                       : 1 h 19 min
    Bit rate                       : 152 b/s
    Count of elements              : 1457
    Stream size                    : 88.9 KiB (0%)
    Title                          : עברית
    Language                       : Hebrew
    Default                        : No
    Forced                         : No
    
    Text #16
    ID                             : 18
    Format                         : UTF-8
    Codec ID                       : S_TEXT/UTF8
    Codec ID/Info                  : UTF-8 Plain Text
    Duration                       : 1 h 19 min
    Bit rate                       : 257 b/s
    Count of elements              : 1458
    Stream size                    : 151 KiB (0%)
    Title                          : हिन्दी
    Language                       : Hindi
    Default                        : No
    Forced                         : No
    
    Text #17
    ID                             : 19
    Format                         : UTF-8
    Codec ID                       : S_TEXT/UTF8
    Codec ID/Info                  : UTF-8 Plain Text
    Duration                       : 1 h 19 min
    Bit rate                       : 109 b/s
    Count of elements              : 1406
    Stream size                    : 64.2 KiB (0%)
    Title                          : magyar
    Language                       : Hungarian
    Default                        : No
    Forced                         : No
    
    Text #18
    ID                             : 20
    Format                         : UTF-8
    Codec ID                       : S_TEXT/UTF8
    Codec ID/Info                  : UTF-8 Plain Text
    Duration                       : 1 h 19 min
    Bit rate                       : 104 b/s
    Count of elements              : 1450
    Stream size                    : 60.9 KiB (0%)
    Title                          : Bahasa Indonesia
    Language                       : Indonesian
    Default                        : No
    Forced                         : No
    
    Text #19
    ID                             : 21
    Format                         : UTF-8
    Codec ID                       : S_TEXT/UTF8
    Codec ID/Info                  : UTF-8 Plain Text
    Duration                       : 1 h 19 min
    Bit rate                       : 110 b/s
    Count of elements              : 1455
    Stream size                    : 64.7 KiB (0%)
    Title                          : Italiano
    Language                       : Italian
    Default                        : No
    Forced                         : No
    
    Text #20
    ID                             : 22
    Format                         : UTF-8
    Codec ID                       : S_TEXT/UTF8
    Codec ID/Info                  : UTF-8 Plain Text
    Duration                       : 1 h 19 min
    Bit rate                       : 92 b/s
    Count of elements              : 1232
    Stream size                    : 54.2 KiB (0%)
    Title                          : 日本語
    Language                       : Japanese
    Default                        : No
    Forced                         : No
    
    Text #21
    ID                             : 23
    Format                         : UTF-8
    Codec ID                       : S_TEXT/UTF8
    Codec ID/Info                  : UTF-8 Plain Text
    Duration                       : 1 h 19 min
    Bit rate                       : 117 b/s
    Count of elements              : 1457
    Stream size                    : 68.6 KiB (0%)
    Title                          : 한국어
    Language                       : Korean
    Default                        : No
    Forced                         : No
    
    Text #22
    ID                             : 24
    Format                         : UTF-8
    Codec ID                       : S_TEXT/UTF8
    Codec ID/Info                  : UTF-8 Plain Text
    Duration                       : 1 h 19 min
    Bit rate                       : 104 b/s
    Count of elements              : 1451
    Stream size                    : 60.8 KiB (0%)
    Title                          : lietuvių
    Language                       : Lithuanian
    Default                        : No
    Forced                         : No
    
    Text #23
    ID                             : 25
    Format                         : UTF-8
    Codec ID                       : S_TEXT/UTF8
    Codec ID/Info                  : UTF-8 Plain Text
    Duration                       : 1 h 19 min
    Bit rate                       : 110 b/s
    Count of elements              : 1431
    Stream size                    : 64.5 KiB (0%)
    Title                          : latviešu
    Language                       : Latvian
    Default                        : No
    Forced                         : No
    
    Text #24
    ID                             : 26
    Format                         : UTF-8
    Codec ID                       : S_TEXT/UTF8
    Codec ID/Info                  : UTF-8 Plain Text
    Duration                       : 1 h 19 min
    Bit rate                       : 110 b/s
    Count of elements              : 1435
    Stream size                    : 64.3 KiB (0%)
    Title                          : Bahasa Melayu
    Language                       : Malay
    Default                        : No
    Forced                         : No
    
    Text #25
    ID                             : 27
    Format                         : UTF-8
    Codec ID                       : S_TEXT/UTF8
    Codec ID/Info                  : UTF-8 Plain Text
    Duration                       : 1 h 19 min
    Bit rate                       : 91 b/s
    Count of elements              : 1173
    Stream size                    : 53.8 KiB (0%)
    Title                          : Nederlands
    Language                       : Dutch
    Default                        : No
    Forced                         : No
    
    Text #26
    ID                             : 28
    Format                         : UTF-8
    Codec ID                       : S_TEXT/UTF8
    Codec ID/Info                  : UTF-8 Plain Text
    Duration                       : 1 h 19 min
    Bit rate                       : 104 b/s
    Count of elements              : 1245
    Stream size                    : 61.1 KiB (0%)
    Title                          : norsk
    Language                       : Norwegian
    Default                        : No
    Forced                         : No
    
    Text #27
    ID                             : 29
    Format                         : UTF-8
    Codec ID                       : S_TEXT/UTF8
    Codec ID/Info                  : UTF-8 Plain Text
    Duration                       : 1 h 19 min
    Bit rate                       : 100 b/s
    Count of elements              : 1318
    Stream size                    : 58.8 KiB (0%)
    Title                          : polski
    Language                       : Polish
    Default                        : No
    Forced                         : No
    
    Text #28
    ID                             : 30
    Format                         : UTF-8
    Codec ID                       : S_TEXT/UTF8
    Codec ID/Info                  : UTF-8 Plain Text
    Duration                       : 1 h 19 min
    Bit rate                       : 104 b/s
    Count of elements              : 1425
    Stream size                    : 61.3 KiB (0%)
    Title                          : Português
    Language                       : Portuguese
    Default                        : No
    Forced                         : No
    
    Text #29
    ID                             : 31
    Format                         : UTF-8
    Codec ID                       : S_TEXT/UTF8
    Codec ID/Info                  : UTF-8 Plain Text
    Duration                       : 1 h 19 min
    Bit rate                       : 104 b/s
    Count of elements              : 1407
    Stream size                    : 61.4 KiB (0%)
    Title                          : Português (Brasil)
    Language                       : Portuguese
    Default                        : No
    Forced                         : No
    
    Text #30
    ID                             : 32
    Format                         : UTF-8
    Codec ID                       : S_TEXT/UTF8
    Codec ID/Info                  : UTF-8 Plain Text
    Duration                       : 1 h 19 min
    Bit rate                       : 165 b/s
    Count of elements              : 1457
    Stream size                    : 97.0 KiB (0%)
    Title                          : Русский
    Language                       : Russian
    Default                        : No
    Forced                         : No
    
    Text #31
    ID                             : 33
    Format                         : UTF-8
    Codec ID                       : S_TEXT/UTF8
    Codec ID/Info                  : UTF-8 Plain Text
    Duration                       : 1 h 19 min
    Bit rate                       : 103 b/s
    Count of elements              : 1415
    Stream size                    : 60.4 KiB (0%)
    Title                          : Slovenčina
    Language                       : Slovak
    Default                        : No
    Forced                         : No
    
    Text #32
    ID                             : 34
    Format                         : UTF-8
    Codec ID                       : S_TEXT/UTF8
    Codec ID/Info                  : UTF-8 Plain Text
    Duration                       : 1 h 19 min
    Bit rate                       : 83 b/s
    Count of elements              : 1410
    Stream size                    : 48.8 KiB (0%)
    Title                          : slovenščina
    Language                       : Slovenian
    Default                        : No
    Forced                         : No
    
    Text #33
    ID                             : 35
    Format                         : UTF-8
    Codec ID                       : S_TEXT/UTF8
    Codec ID/Info                  : UTF-8 Plain Text
    Duration                       : 1 h 19 min
    Bit rate                       : 104 b/s
    Count of elements              : 1454
    Stream size                    : 61.3 KiB (0%)
    Title                          : Svenska
    Language                       : Swedish
    Default                        : No
    Forced                         : No
    
    Text #34
    ID                             : 36
    Format                         : UTF-8
    Codec ID                       : S_TEXT/UTF8
    Codec ID/Info                  : UTF-8 Plain Text
    Duration                       : 1 h 19 min
    Bit rate                       : 348 b/s
    Count of elements              : 1455
    Stream size                    : 204 KiB (0%)
    Title                          : தமிழ்
    Language                       : Tamil
    Default                        : No
    Forced                         : No
    
    Text #35
    ID                             : 37
    Format                         : UTF-8
    Codec ID                       : S_TEXT/UTF8
    Codec ID/Info                  : UTF-8 Plain Text
    Duration                       : 1 h 19 min
    Bit rate                       : 297 b/s
    Count of elements              : 1452
    Stream size                    : 174 KiB (0%)
    Title                          : తెలుగు
    Language                       : Telugu
    Default                        : No
    Forced                         : No
    
    Text #36
    ID                             : 38
    Format                         : UTF-8
    Codec ID                       : S_TEXT/UTF8
    Codec ID/Info                  : UTF-8 Plain Text
    Duration                       : 1 h 19 min
    Bit rate                       : 267 b/s
    Count of elements              : 1457
    Stream size                    : 156 KiB (0%)
    Title                          : ไทย
    Language                       : Thai
    Default                        : No
    Forced                         : No
    
    Text #37
    ID                             : 39
    Format                         : UTF-8
    Codec ID                       : S_TEXT/UTF8
    Codec ID/Info                  : UTF-8 Plain Text
    Duration                       : 1 h 19 min
    Bit rate                       : 106 b/s
    Count of elements              : 1451
    Stream size                    : 62.5 KiB (0%)
    Title                          : Türkçe
    Language                       : Turkish
    Default                        : No
    Forced                         : No
    
    Text #38
    ID                             : 40
    Format                         : UTF-8
    Codec ID                       : S_TEXT/UTF8
    Codec ID/Info                  : UTF-8 Plain Text
    Duration                       : 1 h 19 min
    Bit rate                       : 159 b/s
    Count of elements              : 1455
    Stream size                    : 93.5 KiB (0%)
    Title                          : українська
    Language                       : Ukrainian
    Default                        : No
    Forced                         : No
    
    Text #39
    ID                             : 41
    Format                         : UTF-8
    Codec ID                       : S_TEXT/UTF8
    Codec ID/Info                  : UTF-8 Plain Text
    Duration                       : 1 h 19 min
    Bit rate                       : 136 b/s
    Count of elements              : 1455
    Stream size                    : 79.6 KiB (0%)
    Title                          : Tiếng Việt
    Language                       : Vietnamese
    Default                        : No
    Forced                         : No
    
    Text #40
    ID                             : 42
    Format                         : UTF-8
    Codec ID                       : S_TEXT/UTF8
    Codec ID/Info                  : UTF-8 Plain Text
    Duration                       : 1 h 19 min
    Bit rate                       : 97 b/s
    Count of elements              : 1458
    Stream size                    : 57.1 KiB (0%)
    Title                          : 廣東話
    Language                       : Chinese
    Default                        : No
    Forced                         : No
    
    Text #41
    ID                             : 43
    Format                         : UTF-8
    Codec ID                       : S_TEXT/UTF8
    Codec ID/Info                  : UTF-8 Plain Text
    Duration                       : 1 h 19 min
    Bit rate                       : 96 b/s
    Count of elements              : 1457
    Stream size                    : 56.6 KiB (0%)
    Title                          : 中文(繁體)
    Language                       : Chinese
    Default                        : No
    Forced                         : No
    
    Text #42
    ID                             : 44
    Format                         : UTF-8
    Codec ID                       : S_TEXT/UTF8
    Codec ID/Info                  : UTF-8 Plain Text
    Duration                       : 1 h 19 min
    Bit rate                       : 94 b/s
    Count of elements              : 1457
    Stream size                    : 55.2 KiB (0%)
    Title                          : 中文(简体)
    Language                       : Chinese
    Default                        : No
    Forced                         : No
    Code:
    MP4 Version
    
    Complete name                  : The Oprah Conversation - S01E05 - Mariah Carey.mp4
    Format                         : MPEG-4
    Format profile                 : Base Media
    Codec ID                       : isom (isom/iso2/avc1/mp41)
    File size                      : 5.55 GiB
    Duration                       : 1 h 19 min
    Overall bit rate               : 9 941 kb/s
    Movie name                     : Mariah Carey
    Album                          : The Oprah Conversation, Season 1
    Album/Performer                : The Oprah Conversation
    Part/Position                  : 1
    Track name/Position            : 5
    Performer                      : The Oprah Conversation
    Genre                          : TV Show
    Recorded date                  : 2020
    Writing application            : Lavf58.62.100
    Cover                          : Yes
    
    Video
    ID                             : 1
    Format                         : AVC
    Format/Info                    : Advanced Video Codec
    Format profile                 : High@L4
    Format settings, CABAC         : Yes
    Format settings, RefFrames     : 4 frames
    Codec ID                       : avc1
    Codec ID/Info                  : Advanced Video Coding
    Duration                       : 1 h 19 min
    Bit rate                       : 9 806 kb/s
    Width                          : 1 920 pixels
    Height                         : 1 080 pixels
    Display aspect ratio           : 16:9
    Frame rate mode                : Variable
    Frame rate                     : 23.976 (24000/1001) FPS
    Minimum frame rate             : 23.810 FPS
    Maximum frame rate             : 24.390 FPS
    Color space                    : YUV
    Chroma subsampling             : 4:2:0
    Bit depth                      : 8 bits
    Scan type                      : Progressive
    Bits/(Pixel*Frame)             : 0.197
    Stream size                    : 5.48 GiB (99%)
    Language                       : English
    Color range                    : Limited
    Color primaries                : BT.709
    Transfer characteristics       : BT.709
    Matrix coefficients            : BT.709
    mdhd_Duration                  : 4799169
    
    Audio
    ID                             : 2
    Format                         : AAC
    Format/Info                    : Advanced Audio Codec
    Format profile                 : LC
    Codec ID                       : 40
    Duration                       : 1 h 19 min
    Bit rate mode                  : Constant
    Bit rate                       : 125 kb/s
    Channel(s)                     : 2 channels
    Channel positions              : Front: L R
    Sampling rate                  : 48.0 kHz
    Frame rate                     : 46.875 FPS (1024 SPF)
    Compression mode               : Lossy
    Stream size                    : 71.3 MiB (1%)
    Language                       : English
    Default                        : Yes
    Alternate group                : 1
    [​IMG]
    [​IMG]
    Hidden Content:
    You must reply before you can see the hidden data contained here.
     
  2. Loading...


  3. SmartBeens

    SmartBeens Well-Known Member

    Joined:
    Oct 5, 2014
    Messages:
    1,293
    Likes Received:
    170
    Nice.............Thanks :)
     
  4. wickedtongue

    wickedtongue Member

    Joined:
    Dec 18, 2015
    Messages:
    114
    Likes Received:
    2
  5. russelxpidot

    russelxpidot Member

    Joined:
    Sep 29, 2020
    Messages:
    232
    Likes Received:
    14
  6. windson2

    windson2 Active Member

    Joined:
    Feb 7, 2017
    Messages:
    493
    Likes Received:
    80
    Thanks
     
  7. sergejiwanow

    sergejiwanow outsider

    Joined:
    Nov 13, 2020
    Messages:
    182
    Likes Received:
    29
  8. ThePixelFarm

    ThePixelFarm Livin' in a dream... Capper V . I . P. Uploader Archiver

    Joined:
    Aug 31, 2018
    Messages:
    2,845
    Likes Received:
    7,860
    Many thanks...
     
  9. carlos69

    carlos69 Well-Known Member

    Joined:
    Dec 17, 2013
    Messages:
    1,610
    Likes Received:
    235
    Thank you
     
  10. 3veronicas

    3veronicas Well-Known Member

    Joined:
    Aug 26, 2016
    Messages:
    5,186
    Likes Received:
    433
    Thanks!
     
  11. lorirackl

    lorirackl Active Member

    Joined:
    May 17, 2019
    Messages:
    564
    Likes Received:
    75
    OMG thank you!!
     
  12. MariahFan#1

    MariahFan#1 Active Member

    Joined:
    Jan 26, 2017
    Messages:
    471
    Likes Received:
    38
    Thanks!!!
     
  13. Rebelde25

    Rebelde25 Active Member

    Joined:
    Sep 30, 2020
    Messages:
    528
    Likes Received:
    31
  14. Gefema

    Gefema Member

    Joined:
    Jan 11, 2020
    Messages:
    87
    Likes Received:
    6
    thank you
     
  15. josephmillermusic

    josephmillermusic Member

    Joined:
    Jun 26, 2016
    Messages:
    300
    Likes Received:
    19
    Thank you!!!!
     
  16. andriy000123

    andriy000123 Member

    Joined:
    Apr 16, 2017
    Messages:
    69
    Likes Received:
    8
  17. slapatologist

    slapatologist Well-Known Member

    Joined:
    Jan 30, 2017
    Messages:
    1,242
    Likes Received:
    416
  18. Amauri Luiz

    Amauri Luiz Well-Known Member

    Joined:
    Jan 14, 2014
    Messages:
    3,088
    Likes Received:
    248
    Thank you so much!
     
  19. loris81

    loris81 Well-Known Member

    Joined:
    Jun 21, 2016
    Messages:
    1,337
    Likes Received:
    104
    thxxxx
     
  20. eduardosantos

    eduardosantos Active Member

    Joined:
    Apr 18, 2017
    Messages:
    672
    Likes Received:
    64
    Thank you
     
  21. thefoolontehhill

    thefoolontehhill Active Member

    Joined:
    Mar 27, 2020
    Messages:
    503
    Likes Received:
    117