SERIES The L Word - Season 1 - 6 [1080p AMZN WEB-DL DD5.1 x264--TrollHD] [366GB]

Discussion in 'Cinema Center' started by clublandtiger, Jan 11, 2019.

  1. clublandtiger

    clublandtiger Well-Known Member Uploader Donor

    Joined:
    Apr 4, 2016
    Messages:
    756
    Likes Received:
    4,106
    [​IMG]

    [​IMG]
    [​IMG]
    [​IMG]

    Code:
    Complete name                            : J:Sharemania\Complete\The L Word S02E01 1080p Amazon WEB-DL DD+ 5.1 x264-TrollHD.mkv
    Format                                   : Matroska
    Format version                           : Version 4
    File size                                : 5.70 GiB
    Duration                                 : 55 min 22 s
    Overall bit rate mode                    : Variable
    Overall bit rate                         : 14.7 Mb/s
    Encoded date                             : UTC 2017-09-24 13:36:35
    Writing application                      : mkvmerge v13.0.0 ('The Juggler') 64bit
    Writing library                          : libebml v1.3.4 + libmatroska v1.4.5
    
    Video
    ID                                       : 1
    Format                                   : AVC
    Format/Info                              : Advanced Video Codec
    Format profile                           : High@L4
    Format settings                          : CABAC / 4 Ref Frames
    Format settings, CABAC                   : Yes
    Format settings, RefFrames               : 4 frames
    Codec ID                                 : V_MPEG4/ISO/AVC
    Duration                                 : 55 min 22 s
    Bit rate mode                            : Variable
    Bit rate                                 : 14.1 Mb/s
    Maximum bit rate                         : 15.0 Mb/s
    Width                                    : 1 920 pixels
    Height                                   : 1 080 pixels
    Display aspect ratio                     : 16:9
    Frame rate mode                          : Constant
    Frame rate                               : 23.976 (24000/1001) FPS
    Color space                              : YUV
    Chroma subsampling                       : 4:2:0
    Bit depth                                : 8 bits
    Scan type                                : Progressive
    Bits/(Pixel*Frame)                       : 0.284
    Stream size                              : 5.45 GiB (96%)
    Writing library                          : x264 core 148 r2623 d5b2374
    Encoding settings                        : cabac=1 / ref=4 / deblock=1:-1:-1 / analyse=0x3:0x133 / me=umh / subme=9 / psy=1 / psy_rd=1.00:0.15 / mixed_ref=1 / me_range=24 / chroma_me=1 / trellis=2 / 8x8dct=1 / cqm=0 / deadzone=21,11 / fast_pskip=1 / chroma_qp_offset=-3 / threads=34 / lookahead_threads=5 / sliced_threads=0 / nr=150 / decimate=1 / interlaced=0 / bluray_compat=0 / constrained_intra=0 / bframes=8 / b_pyramid=2 / b_adapt=2 / b_bias=0 / direct=3 / weightb=1 / open_gop=0 / weightp=2 / keyint=120 / keyint_min=61 / scenecut=0 / intra_refresh=0 / rc_lookahead=120 / rc=crf / mbtree=1 / crf=18.0 / qcomp=0.60 / qpmin=0 / qpmax=69 / qpstep=4 / vbv_maxrate=15000 / vbv_bufsize=31250 / crf_max=0.0 / nal_hrd=vbr / filler=0 / ip_ratio=1.40 / aq=3:1.00
    Default                                  : Yes
    Forced                                   : No
    Color range                              : Limited
    Color primaries                          : BT.709
    Transfer characteristics                 : BT.709
    Matrix coefficients                      : BT.709
    
    Audio
    ID                                       : 2
    Format                                   : E-AC-3
    Format/Info                              : Enhanced AC-3
    Commercial name                          : Dolby Digital Plus
    Codec ID                                 : A_EAC3
    Duration                                 : 55 min 22 s
    Bit rate mode                            : Constant
    Bit rate                                 : 640 kb/s
    Channel(s)                               : 6 channels
    Channel layout                           : L R C LFE Ls Rs
    Sampling rate                            : 48.0 kHz
    Frame rate                               : 31.250 FPS (1536 SPF)
    Compression mode                         : Lossy
    Stream size                              : 254 MiB (4%)
    Language                                 : English
    Service kind                             : Complete Main
    Default                                  : Yes
    Forced                                   : No
    Download Server - MEGA




    Season 1

    Episode 1 - 10

    Hidden Content:
    You must reply before you can see the hidden data contained here.
    Episode 11 - 14

    Hidden Content:
    You must reply before you can see the hidden data contained here.
    Season 2

    Episode 1 - 4

    Hidden Content:
    You must reply before you can see the hidden data contained here.
    Episode 5 - 13

    Hidden Content:
    You must reply before you can see the hidden data contained here.
    Season 3

    Episode 1 - 10

    Hidden Content:
    You must reply before you can see the hidden data contained here.
    Episode 11 - 12

    Hidden Content:
    You must reply before you can see the hidden data contained here.
    Season 4

    Episode 1 - 8

    Hidden Content:
    You must reply before you can see the hidden data contained here.
    Episode 9 - 12

    Hidden Content:
    You must reply before you can see the hidden data contained here.
    Season 5

    Episode 1 - 5

    Hidden Content:
    You must reply before you can see the hidden data contained here.
    Episode 6 - 12

    Hidden Content:
    You must reply before you can see the hidden data contained here.
    Season 6

    Hidden Content:
    You must reply before you can see the hidden data contained here.

     
    Last edited: Jan 12, 2019
  2. Loading...


  3. SmartBeens

    SmartBeens Well-Known Member

    Joined:
    Oct 5, 2014
    Messages:
    1,014
    Likes Received:
    100
    VERY Nice....I want to get this down :) Thanks
     
    clublandtiger likes this.
  4. dovelover

    dovelover New Member

    Joined:
    Oct 24, 2018
    Messages:
    15
    Likes Received:
    2
    thx...any chance of smaller version?
     
  5. SmartBeens

    SmartBeens Well-Known Member

    Joined:
    Oct 5, 2014
    Messages:
    1,014
    Likes Received:
    100
    Tooo many users have downloaded !!! ALL I got down was up to S2 Ep10 !!!??

    Any other options ?
     
  6. brown69

    brown69 Active Member

    Joined:
    Apr 14, 2017
    Messages:
    178
    Likes Received:
    80
    File does not exist on this server. :(
     
  7. SmartBeens

    SmartBeens Well-Known Member

    Joined:
    Oct 5, 2014
    Messages:
    1,014
    Likes Received:
    100
    Fingers Crossed WE can get another download option >> I'd even take a Torrent & take my luck with that IF that was an option ::
    Been wanting this Series in this quality for sometime.
     
  8. clublandtiger

    clublandtiger Well-Known Member Uploader Donor

    Joined:
    Apr 4, 2016
    Messages:
    756
    Likes Received:
    4,106
    New MEGA download links have just been added :) .
     
    brown69 likes this.
  9. brown69

    brown69 Active Member

    Joined:
    Apr 14, 2017
    Messages:
    178
    Likes Received:
    80
    Thank you very much! :love:
     
  10. Fusion131

    Fusion131 New Member

    Joined:
    Jan 12, 2019
    Messages:
    4
    Likes Received:
    1
    Many thanks
     
  11. SmartBeens

    SmartBeens Well-Known Member

    Joined:
    Oct 5, 2014
    Messages:
    1,014
    Likes Received:
    100
    Thanks SO Much ::: Now, Lets see If I can finish this Today :)
     
  12. MTC

    MTC Member

    Joined:
    Jul 13, 2018
    Messages:
    988
    Likes Received:
    23
    thanks
     
  13. puppiesandkittens

    puppiesandkittens Member

    Joined:
    Jun 19, 2014
    Messages:
    252
    Likes Received:
    17
    thank you so much!
     
  14. Mimccann

    Mimccann Member

    Joined:
    Jan 24, 2019
    Messages:
    39
    Likes Received:
    1
    just checking
     
  15. spinmonk

    spinmonk New Member

    Joined:
    Nov 5, 2016
    Messages:
    6
    Likes Received:
    0
    Thank you, great series!
     
  16. marian

    marian Member

    Joined:
    Mar 19, 2017
    Messages:
    44
    Likes Received:
    1
    thanks
     
  17. lolmama

    lolmama New Member

    Joined:
    May 13, 2018
    Messages:
    6
    Likes Received:
    0
    Thanks
     
  18. timmy52

    timmy52 New Member

    Joined:
    Mar 25, 2019
    Messages:
    12
    Likes Received:
    0
    thanks for the post
     
  19. cris1

    cris1 New Member

    Joined:
    Apr 14, 2019
    Messages:
    1
    Likes Received:
    0
    Thank you !
     
  20. Aymee

    Aymee New Member

    Joined:
    Apr 24, 2019
    Messages:
    1
    Likes Received:
    0
    Thank you very much !
     
  21. Sabby1111

    Sabby1111 New Member

    Joined:
    May 15, 2019
    Messages:
    1
    Likes Received:
    0
    Thank you