The Killers - Somebody Told Me VH1HD 1080i HDTV DD2.0 H.264 CELOBRAZiL-HDMania

Discussion in 'VH1 HD' started by CELOBRAZiL, Jan 11, 2018.

  1. CELOBRAZiL

    CELOBRAZiL Well-Known Member Capper V . I . P. Donor

    Joined:
    Oct 2, 2013
    Messages:
    5,718
    Likes Received:
    18,509
    The Killers - Somebody Told Me VH1HD 1080i HDTV DD2.0 H.264 CELOBRAZiL-HDMania

    [​IMG]



    Format : MPEG-TS
    File size : 158 MiB
    Duration : 3mn 17s
    Overall bit rate mode : Variable
    Overall bit rate : 6 713 Kbps

    Video
    ID : 5408 (0x1520)
    Menu ID : 5416 (0x1528)
    Format : AVC
    Format/Info : Advanced Video Codec
    Format profile : High@L4
    Format settings, CABAC : Yes
    Format settings, ReFrames : 3 frames
    Codec ID : 27
    Duration : 3mn 19s
    Bit rate : 5 994 Kbps
    Width : 1 920 pixels
    Height : 1 080 pixels
    Display aspect ratio : 16:9
    Frame rate : 29.970 fps
    Color space : YUV
    Chroma subsampling : 4:2:0
    Bit depth : 8 bits
    Scan type : MBAFF
    Scan order : Top Field First
    Bits/(Pixel*Frame) : 0.096
    Stream size : 143 MiB (90%)

    Audio
    ID : 5409 (0x1521)
    Menu ID : 5416 (0x1528)
    Format : AC-3
    Format/Info : Audio Coding 3
    Mode extension : CM (complete main)
    Format settings, Endianness : Big
    Codec ID : 129
    Duration : 3mn 19s
    Bit rate mode : Constant
    Bit rate : 384 Kbps
    Channel(s) : 2 channels
    Channel positions : Front: L R
    Sampling rate : 48.0 KHz
    Bit depth : 16 bits
    Compression mode : Lossy
    Stream size : 9.15 MiB (6%)
    Language : English

    Link(s):
    Hidden Content:
    You must either reply or click 'Like' to see the hidden information contained here.
     
    Last edited: Jan 12, 2018
  2. Loading...


  3. CELOBRAZiL

    CELOBRAZiL Well-Known Member Capper V . I . P. Donor

    Joined:
    Oct 2, 2013
    Messages:
    5,718
    Likes Received:
    18,509
  4. Thassyo

    Thassyo Well-Known Member

    Joined:
    Oct 9, 2013
    Messages:
    2,893
    Likes Received:
    1,306
    Thanks!
     
    CELOBRAZiL likes this.
  5. jonathan joel 97

    jonathan joel 97 Sasuke

    Joined:
    Oct 1, 2015
    Messages:
    337
    Likes Received:
    246
    Thank you:love:
     
    CELOBRAZiL likes this.
  6. rvden

    rvden Well-Known Member

    Joined:
    Apr 9, 2017
    Messages:
    587
    Likes Received:
    431
    Thank you!
     
    CELOBRAZiL likes this.
  7. CELOBRAZiL

    CELOBRAZiL Well-Known Member Capper V . I . P. Donor

    Joined:
    Oct 2, 2013
    Messages:
    5,718
    Likes Received:
    18,509
    Added FEX.NET and ZIPPYSHARE links! :)
     
  8. rhea

    rhea Well-Known Member

    Joined:
    Jan 6, 2014
    Messages:
    8,296
    Likes Received:
    1,185
    thanks
     
    CELOBRAZiL likes this.
  9. ildson

    ildson Active Member

    Joined:
    Nov 4, 2017
    Messages:
    476
    Likes Received:
    41
    thanks
     
    CELOBRAZiL likes this.
  10. seregil

    seregil Active Member

    Joined:
    Sep 5, 2014
    Messages:
    325
    Likes Received:
    34
    thanks
     
    CELOBRAZiL likes this.