The Killers - Read My Mind (VH1.HD.1080i.DD5.1).-Crusha

Discussion in 'VH1 HD' started by Crusha, Jun 26, 2016.

  1. Crusha

    Crusha Well-Known Member Capper V . I . P.

    Joined:
    Oct 15, 2014
    Messages:
    2,359
    Likes Received:
    2,947
    [​IMG]
    [​IMG] [​IMG] [​IMG]

    Mediainfo
    Code:
    General
    ID                             : 1 (0x1)
    Complete name                  : The Killers - Read My Mind (VH1.HD.1080i.DD5.1).-Crusha.ts
    Format                         : MPEG-TS
    File size                      : 117 MiB
    Duration                       : 4mn 10s
    Overall bit rate mode          : Variable
    Overall bit rate               : 3 899 Kbps
    
    Video
    ID                             : 2943 (0xB7F)
    Menu ID                        : 1515 (0x5EB)
    Format                         : AVC
    Format/Info                    : Advanced Video Codec
    Format profile                 : High@L4
    Format settings, CABAC         : Yes
    Format settings, ReFrames      : 4 frames
    Codec ID                       : 27
    Duration                       : 4mn 10s
    Bit rate                       : 3 319 Kbps
    Width                          : 1 920 pixels
    Height                         : 1 080 pixels
    Display aspect ratio           : 16:9
    Frame rate                     : 29.970 fps
    Standard                       : Component
    Color space                    : YUV
    Chroma subsampling             : 4:2:0
    Bit depth                      : 8 bits
    Scan type                      : MBAFF
    Scan order                     : Top Field First
    Bits/(Pixel*Frame)             : 0.053
    Stream size                    : 99.2 MiB (85%)
    Color range                    : Limited
    Color primaries                : BT.709
    Transfer characteristics       : BT.709
    Matrix coefficients            : BT.709
    
    Audio
    ID                             : 3909 (0xF45)
    Menu ID                        : 1515 (0x5EB)
    Format                         : AC-3
    Format/Info                    : Audio Coding 3
    Mode extension                 : CM (complete main)
    Format settings, Endianness    : Big
    Codec ID                       : 6
    Duration                       : 4mn 10s
    Bit rate mode                  : Constant
    Bit rate                       : 384 Kbps
    Channel(s)                     : 6 channels
    Channel positions              : Front: L C R, Side: L R, LFE
    Sampling rate                  : 48.0 KHz
    Bit depth                      : 16 bits
    Compression mode               : Lossy
    Stream size                    : 11.5 MiB (10%)
    Language                       : English
    
    
    Hidden Content:
    You must reply before you can see the hidden data contained here.
    Password: crusha
     
    kyo23, mstu80, jack and 1 other person like this.
  2. Loading...


  3. jonathan joel 97

    jonathan joel 97 Sasuke

    Joined:
    Oct 1, 2015
    Messages:
    336
    Likes Received:
    246
    Thank you crusha amigo :)
     
  4. PedroCorrea

    PedroCorrea Active Member

    Joined:
    Aug 21, 2014
    Messages:
    377
    Likes Received:
    56
  5. rhea

    rhea Well-Known Member

    Joined:
    Jan 6, 2014
    Messages:
    8,171
    Likes Received:
    1,150
    thank you
     
  6. andyfrut

    andyfrut New Member

    Joined:
    Jul 14, 2015
    Messages:
    4
    Likes Received:
    0
    thaaansk !
     
  7. yonita

    yonita Active Member

    Joined:
    Mar 7, 2016
    Messages:
    476
    Likes Received:
    61
  8. jack

    jack Member

    Joined:
    Aug 6, 2016
    Messages:
    146
    Likes Received:
    11
    amazing! tnks
     
  9. CristianMatias

    CristianMatias Next Generations

    Joined:
    Sep 17, 2016
    Messages:
    1,242
    Likes Received:
    67
    The Killers
     
  10. CristianMatias

    CristianMatias Next Generations

    Joined:
    Sep 17, 2016
    Messages:
    1,242
    Likes Received:
    67
    The Killers
     
  11. mstu80

    mstu80 New Member

    Joined:
    Mar 30, 2017
    Messages:
    22
    Likes Received:
    3
    thanks
     
  12. Cadu

    Cadu Member

    Joined:
    Feb 1, 2016
    Messages:
    267
    Likes Received:
    19
    thank you
     
  13. alvarojam

    alvarojam Member

    Joined:
    Mar 21, 2016
    Messages:
    148
    Likes Received:
    13
    thank you!!!
     
  14. MrBrightside

    MrBrightside New Member

    Joined:
    Oct 7, 2017
    Messages:
    3
    Likes Received:
    0
    Thank you
     
  15. Ninnah

    Ninnah New Member

    Joined:
    Jul 28, 2014
    Messages:
    3
    Likes Received:
    0
    Thanks
     
  16. ildson

    ildson Active Member

    Joined:
    Nov 4, 2017
    Messages:
    468
    Likes Received:
    40
    thanks
     
  17. lucasrefresh

    lucasrefresh New Member

    Joined:
    Jan 12, 2018
    Messages:
    1
    Likes Received:
    0
  18. flashisdead

    flashisdead New Member

    Joined:
    Apr 25, 2018
    Messages:
    16
    Likes Received:
    4
  19. kyo23

    kyo23 Member

    Joined:
    Jan 31, 2014
    Messages:
    283
    Likes Received:
    8
    I WANT IT, THANK YOU SO MUCH