HDTV The Concert For Valor 2014 1080i HDTV MPEG2 DD5.1-CtrlHD

Discussion in 'HD Live Performances' started by Ransel, Jun 12, 2019.

  1. Ransel

    Ransel Founder Staff Member AdMiN Uploader

    Joined:
    Oct 1, 2013
    Messages:
    1,340
    Likes Received:
    19,835
    The Concert For Valor 2014 1080i HDTV MPEG2 DD5.1-CtrlHD
    [​IMG]
    [​IMG] [​IMG] [​IMG]

    SetList:
    Code:
    Jennifer Hudson – "The Star Spangled Banner"
    Jessie J with Jennifer Hudson – "Titanium"
    Jessie J – "Bang Bang"
    Dave Grohl – "My Hero"
    Dave Grohl – "Everlong"
    Zac Brown Band – "Free" with snippet of "God Bless the USA"
    Zac Brown Band – "Chicken Fried"
    Zac Brown Band with Dave Grohl and Bruce Springsteen – "Fortunate Son"
    The Black Keys – "Howlin' for You"
    The Black Keys – "Fever"
    The Black Keys – "Lonely Boy"
    Carrie Underwood – "See You Again"
    Carrie Underwood – "Something in the Water" with Singing Sergeants of USAF
    Carrie Underwood – "Before He Cheats"
    Metallica – "For Whom the Bell Tolls"
    Metallica – "Master of Puppets" with snippet of "One"
    Metallica – "Enter Sandman"
    Bruce Springsteen – "The Promised Land"
    Bruce Springsteen – "Born in the USA"
    Bruce Springsteen – "Dancing in the Dark"
    Rihanna – "Diamonds"
    Rihanna – "Stay"
    Rihanna and Eminem – "The Monster"
    Eminem – "Guts Over Fear"
    Eminem – "Not Afraid"
    Eminem – "Lose Yourself"
    General
    ID : 1 (0x1)
    Complete name : The Concert For Valor 2014 1080i HDTV MPEG2 DD5.1-CtrlHD.ts
    Format : MPEG-TS
    File size : 16.8 GiB
    Duration : 2 h 52 min
    Overall bit rate mode : Variable
    Overall bit rate : 13.9 Mb/s
    Movie name : THE CONCERT FOR VALOR(CC)
    Law rating : TV-14 (DL)

    Video
    ID : 33 (0x21)
    Menu ID : 1 (0x1)
    Format : MPEG Video
    Format version : Version 2
    Format profile : Main@High
    Format settings : BVOP
    Format settings, BVOP : Yes
    Format settings, Matrix : Default
    Format settings, GOP : Variable
    Codec ID : 2
    Duration : 2 h 52 min
    Bit rate mode : Variable
    Bit rate : 12.8 Mb/s
    Maximum bit rate : 38.8 Mb/s
    Width : 1 920 pixels
    Height : 1 080 pixels
    Display aspect ratio : 16:9
    Frame rate : 29.970 (30000/1001) FPS
    Color space : YUV
    Chroma subsampling : 4:2:0
    Bit depth : 8 bits
    Compression mode : Lossy
    Bits/(Pixel*Frame) : 0.206
    Time code of first frame : 00:00:00;00
    Time code source : Group of pictures header
    GOP, Open/Closed : Open
    GOP, Open/Closed of first frame : Closed
    Stream size : 15.5 GiB (92%)

    Audio
    ID : 36 (0x24)
    Menu ID : 1 (0x1)
    Format : AC-3
    Format/Info : Audio Coding 3
    Codec ID : 129
    Duration : 2 h 52 min
    Bit rate mode : Constant
    Bit rate : 384 kb/s
    Channel(s) : 6 channels
    Channel positions : Front: L C R, Side: L R, LFE
    Sampling rate : 48.0 kHz
    Frame rate : 31.250 FPS (1536 SPF)
    Bit depth : 16 bits
    Compression mode : Lossy
    Stream size : 474 MiB (3%)
    Language : English
    Service kind : Complete Main

    Text #1
    ID : 33 (0x21)-CC1
    Menu ID : 1 (0x1)
    Format : EIA-608
    Muxing mode : A/53 / DTVCC Transport
    Muxing mode, more info : Muxed in Video #1
    Duration : 2 h 52 min
    Bit rate mode : Constant
    Stream size : 0.00 Byte (0%)
    CaptionServiceName : CC1

    Text #2
    ID : 33 (0x21)-CC3
    Menu ID : 1 (0x1)
    Format : EIA-608
    Muxing mode : A/53 / DTVCC Transport
    Muxing mode, more info : Muxed in Video #1
    Duration : 2 h 52 min
    Bit rate mode : Constant
    Stream size : 0.00 Byte (0%)
    CaptionServiceName : CC3

    Text #3
    ID : 33 (0x21)-1
    Menu ID : 1 (0x1)
    Format : EIA-708
    Muxing mode : A/53 / DTVCC Transport
    Muxing mode, more info : Muxed in Video #1
    Duration : 2 h 52 min
    Bit rate mode : Constant
    Stream size : 0.00 Byte (0%)

    Text #4
    ID : 33 (0x21)-2
    Menu ID : 1 (0x1)
    Format : EIA-708
    Muxing mode : A/53 / DTVCC Transport
    Muxing mode, more info : Muxed in Video #1
    Duration : 2 h 52 min
    Bit rate mode : Constant
    Stream size : 0.00 Byte (0%)

    Original Release Group: CtrlHD
    Server Download - Google Drive

    Hidden Content:
    You must reply before you can see the hidden data contained here.
    :victory:
     
    abcdefg likes this.
  2. Loading...


  3. GnuHD

    GnuHD Well-Known Member Uploader Donor

    Joined:
    Feb 16, 2016
    Messages:
    1,371
    Likes Received:
    2,007
    Thank you so much!:)
     
  4. ThePixelFarm

    ThePixelFarm Livin' in a dream... Capper

    Joined:
    Aug 31, 2018
    Messages:
    882
    Likes Received:
    1,292
    Thank you so much...
    Can’t thank you enough... :happy:
     
  5. kabaldomato

    kabaldomato Member

    Joined:
    Oct 26, 2017
    Messages:
    57
    Likes Received:
    1
    thank you!
     
  6. zagiru

    zagiru Member

    Joined:
    May 19, 2018
    Messages:
    94
    Likes Received:
    8
    thanks
     
  7. darksider

    darksider Member

    Joined:
    Nov 7, 2015
    Messages:
    332
    Likes Received:
    16
  8. Adaros

    Adaros Active Member

    Joined:
    Jun 5, 2016
    Messages:
    851
    Likes Received:
    105
  9. abcdefg

    abcdefg Active Member

    Joined:
    Feb 6, 2018
    Messages:
    456
    Likes Received:
    37
  10. apl3

    apl3 Well-Known Member

    Joined:
    Jun 11, 2017
    Messages:
    1,546
    Likes Received:
    39