The Chainsmokers ft. Daya - Dont Let Me Down (VH1.HD.1080i.DD5.1).-Crusha

Discussion in 'VH1 HD' started by Crusha, May 16, 2016.

  1. Crusha

    Crusha Well-Known Member Capper

    Joined:
    Oct 15, 2014
    Messages:
    2,350
    Likes Received:
    2,137
    [​IMG]

    Mediainfo

    Code:
    General
    ID                             : 1 (0x1)
    Complete name                  : The Chainsmokers ft. Daya - Dont Let Me Down (VH1.HD.1080i.DD5.1).-Crusha.ts
    Format                         : MPEG-TS
    File size                      : 96.5 MiB
    Duration                       : 3mn 36s
    Overall bit rate mode          : Variable
    Overall bit rate               : 3 742 Kbps
    
    Video
    ID                             : 2943 (0xB7F)
    Menu ID                        : 1515 (0x5EB)
    Format                         : AVC
    Format/Info                    : Advanced Video Codec
    Format profile                 : [email protected]
    Format settings, CABAC         : Yes
    Format settings, ReFrames      : 4 frames
    Codec ID                       : 27
    Duration                       : 3mn 36s
    Bit rate                       : 3 169 Kbps
    Width                          : 1 920 pixels
    Height                         : 1 080 pixels
    Display aspect ratio           : 16:9
    Frame rate                     : 29.970 fps
    Standard                       : Component
    Color space                    : YUV
    Chroma subsampling             : 4:2:0
    Bit depth                      : 8 bits
    Scan type                      : MBAFF
    Scan order                     : Top Field First
    Bits/(Pixel*Frame)             : 0.051
    Stream size                    : 81.7 MiB (85%)
    Color range                    : Limited
    Color primaries                : BT.709
    Transfer characteristics       : BT.709
    Matrix coefficients            : BT.709
    
    Audio
    ID                             : 3909 (0xF45)
    Menu ID                        : 1515 (0x5EB)
    Format                         : AC-3
    Format/Info                    : Audio Coding 3
    Mode extension                 : CM (complete main)
    Format settings, Endianness    : Big
    Codec ID                       : 6
    Duration                       : 3mn 36s
    Bit rate mode                  : Constant
    Bit rate                       : 384 Kbps
    Channel(s)                     : 6 channels
    Channel positions              : Front: L C R, Side: L R, LFE
    Sampling rate                  : 48.0 KHz
    Bit depth                      : 16 bits
    Compression mode               : Lossy
    Stream size                    : 9.90 MiB (10%)
    Language                       : English
    
    Hidden Content:
    You must reply before you can see the hidden data contained here.
    Password: crusha
     
  2. Loading...


  3. Zatimi

    Zatimi Active Member

    Joined:
    Aug 27, 2014
    Messages:
    598
    Likes Received:
    61
    thanks a lot
     
  4. PedroCorrea

    PedroCorrea Active Member

    Joined:
    Aug 21, 2014
    Messages:
    357
    Likes Received:
    26
  5. rhea

    rhea Well-Known Member

    Joined:
    Jan 6, 2014
    Messages:
    5,277
    Likes Received:
    253
    thanks a lot
     
  6. Chris Sooz

    Chris Sooz Member

    Joined:
    Jan 13, 2016
    Messages:
    189
    Likes Received:
    3
    Thanks!
     
  7. slill

    slill Member

    Joined:
    Jul 25, 2014
    Messages:
    910
    Likes Received:
    9
    thanks
     
  8. jayananda

    jayananda Member

    Joined:
    Jan 14, 2015
    Messages:
    248
    Likes Received:
    5
    Thank You
     
  9. wolf2015

    wolf2015 Member

    Joined:
    Jan 1, 2015
    Messages:
    632
    Likes Received:
    20
    THANKS
     
  10. jonathan joel 97

    jonathan joel 97 Member

    Joined:
    Oct 1, 2015
    Messages:
    85
    Likes Received:
    20
  11. zyao

    zyao Member

    Joined:
    Oct 12, 2016
    Messages:
    122
    Likes Received:
    0
    thanks