The Chainsmokers ft. Daya - Dont Let Me Down (VH1.HD.1080i.DD5.1).-Crusha

Discussion in 'VH1 HD' started by Crusha, May 16, 2016.

  1. Crusha

    Crusha Well-Known Member Capper V . I . P.

    Joined:
    Oct 15, 2014
    Messages:
    2,358
    Likes Received:
    2,797
    [​IMG]

    Mediainfo

    Code:
    General
    ID                             : 1 (0x1)
    Complete name                  : The Chainsmokers ft. Daya - Dont Let Me Down (VH1.HD.1080i.DD5.1).-Crusha.ts
    Format                         : MPEG-TS
    File size                      : 96.5 MiB
    Duration                       : 3mn 36s
    Overall bit rate mode          : Variable
    Overall bit rate               : 3 742 Kbps
    
    Video
    ID                             : 2943 (0xB7F)
    Menu ID                        : 1515 (0x5EB)
    Format                         : AVC
    Format/Info                    : Advanced Video Codec
    Format profile                 : High@L4
    Format settings, CABAC         : Yes
    Format settings, ReFrames      : 4 frames
    Codec ID                       : 27
    Duration                       : 3mn 36s
    Bit rate                       : 3 169 Kbps
    Width                          : 1 920 pixels
    Height                         : 1 080 pixels
    Display aspect ratio           : 16:9
    Frame rate                     : 29.970 fps
    Standard                       : Component
    Color space                    : YUV
    Chroma subsampling             : 4:2:0
    Bit depth                      : 8 bits
    Scan type                      : MBAFF
    Scan order                     : Top Field First
    Bits/(Pixel*Frame)             : 0.051
    Stream size                    : 81.7 MiB (85%)
    Color range                    : Limited
    Color primaries                : BT.709
    Transfer characteristics       : BT.709
    Matrix coefficients            : BT.709
    
    Audio
    ID                             : 3909 (0xF45)
    Menu ID                        : 1515 (0x5EB)
    Format                         : AC-3
    Format/Info                    : Audio Coding 3
    Mode extension                 : CM (complete main)
    Format settings, Endianness    : Big
    Codec ID                       : 6
    Duration                       : 3mn 36s
    Bit rate mode                  : Constant
    Bit rate                       : 384 Kbps
    Channel(s)                     : 6 channels
    Channel positions              : Front: L C R, Side: L R, LFE
    Sampling rate                  : 48.0 KHz
    Bit depth                      : 16 bits
    Compression mode               : Lossy
    Stream size                    : 9.90 MiB (10%)
    Language                       : English
    
    Hidden Content:
    You must reply before you can see the hidden data contained here.
    Password: crusha
     
  2. Loading...


  3. Zatimi

    Zatimi Active Member

    Joined:
    Aug 27, 2014
    Messages:
    834
    Likes Received:
    189
    thanks a lot
     
  4. PedroCorrea

    PedroCorrea Active Member

    Joined:
    Aug 21, 2014
    Messages:
    361
    Likes Received:
    52
  5. rhea

    rhea Well-Known Member

    Joined:
    Jan 6, 2014
    Messages:
    7,673
    Likes Received:
    965
    thanks a lot
     
  6. Chris Sooz

    Chris Sooz Member

    Joined:
    Jan 13, 2016
    Messages:
    272
    Likes Received:
    3
    Thanks!
     
  7. slill

    slill Active Member

    Joined:
    Jul 25, 2014
    Messages:
    1,153
    Likes Received:
    19
    thanks
     
  8. jayananda

    jayananda Active Member

    Joined:
    Jan 14, 2015
    Messages:
    861
    Likes Received:
    231
    Thank You
     
  9. wolf2015

    wolf2015 Active Member

    Joined:
    Jan 1, 2015
    Messages:
    690
    Likes Received:
    28
    THANKS
     
  10. jonathan joel 97

    jonathan joel 97 Sasuke

    Joined:
    Oct 1, 2015
    Messages:
    310
    Likes Received:
    222
  11. zyao

    zyao Member

    Joined:
    Oct 12, 2016
    Messages:
    364
    Likes Received:
    9
    thanks
     
  12. Frogman12

    Frogman12 Member

    Joined:
    Mar 28, 2017
    Messages:
    124
    Likes Received:
    9
  13. larrymendiera

    larrymendiera New Member

    Joined:
    Apr 7, 2017
    Messages:
    7
    Likes Received:
    0
    thanks! good post...
     
  14. John fresco

    John fresco :v

    Joined:
    Apr 23, 2017
    Messages:
    179
    Likes Received:
    47
  15. Zeeh

    Zeeh Rallyforrivers.org

    Joined:
    Mar 20, 2015
    Messages:
    754
    Likes Received:
    30
    thank.
     
  16. Jakunek

    Jakunek New Member

    Joined:
    Jul 26, 2016
    Messages:
    26
    Likes Received:
    0
    thank you
     
  17. erroljr1977

    erroljr1977 Member

    Joined:
    Apr 18, 2017
    Messages:
    472
    Likes Received:
    15
    THANKS
     
  18. cero

    cero Member

    Joined:
    Nov 1, 2013
    Messages:
    144
    Likes Received:
    1
    cool song thanks!!