The Chainsmokers ft. Daya - Dont Let Me Down (MULTISHOW.HD.1080i.DD5.1).-Crusha

Discussion in 'MULTISHOW HD' started by Crusha, Sep 17, 2016.

  1. Crusha

    Crusha Well-Known Member Capper

    Joined:
    Oct 15, 2014
    Messages:
    2,350
    Likes Received:
    2,213
    [​IMG]

    Mediainfo
    Code:
    General
    ID                             : 1 (0x1)
    Complete name                  : The Chainsmokers ft. Daya - Dont Let Me Down (MULTISHOW.HD.1080i.DD5.1).-Crusha.ts
    Format                         : MPEG-TS
    File size                      : 143 MiB
    Duration                       : 3mn 31s
    Overall bit rate mode          : Variable
    Overall bit rate               : 5 702 Kbps
    
    Video
    ID                             : 2593 (0xA21)
    Menu ID                        : 2542 (0x9EE)
    Format                         : AVC
    Format/Info                    : Advanced Video Codec
    Format profile                 : [email protected]
    Format settings, CABAC         : Yes
    Format settings, ReFrames      : 4 frames
    Codec ID                       : 27
    Duration                       : 3mn 30s
    Bit rate                       : 5 032 Kbps
    Width                          : 1 920 pixels
    Height                         : 1 080 pixels
    Display aspect ratio           : 16:9
    Frame rate                     : 29.970 fps
    Standard                       : Component
    Color space                    : YUV
    Chroma subsampling             : 4:2:0
    Bit depth                      : 8 bits
    Scan type                      : MBAFF
    Scan order                     : Top Field First
    Bits/(Pixel*Frame)             : 0.081
    Stream size                    : 127 MiB (88%)
    Color range                    : Limited
    Color primaries                : BT.709
    Transfer characteristics       : BT.709
    Matrix coefficients            : BT.709
    
    Audio
    ID                             : 3593 (0xE09)
    Menu ID                        : 2542 (0x9EE)
    Format                         : AC-3
    Format/Info                    : Audio Coding 3
    Mode extension                 : CM (complete main)
    Format settings, Endianness    : Big
    Codec ID                       : 6
    Duration                       : 3mn 30s
    Bit rate mode                  : Constant
    Bit rate                       : 384 Kbps
    Channel(s)                     : 6 channels
    Channel positions              : Front: L C R, Side: L R, LFE
    Sampling rate                  : 48.0 KHz
    Bit depth                      : 16 bits
    Compression mode               : Lossy
    Stream size                    : 9.66 MiB (7%)
    Language                       : Portuguese
    
    Hidden Content:
    You must reply before you can see the hidden data contained here.
    Password: crusha
     
    William Playsson II and rhea like this.
  2. rhea

    rhea Well-Known Member

    Joined:
    Jan 6, 2014
    Messages:
    5,550
    Likes Received:
    312
    thanks
     
  3. ytyh

    ytyh Member

    Joined:
    Mar 30, 2014
    Messages:
    432
    Likes Received:
    4
    Thank you
     
  4. maurohachen

    maurohachen Member

    Joined:
    Feb 24, 2015
    Messages:
    396
    Likes Received:
    17
    thank you