CC The Chainsmokers - All We Know VH1HD 1080i HDTV DD2.0 H.264 CELOBRAZiL-HDMania [CC]

Discussion in 'VH1 HD' started by CELOBRAZiL, Jan 4, 2017.

  1. CELOBRAZiL

    CELOBRAZiL Well-Known Member Capper V . I . P. Donor

    Joined:
    Oct 2, 2013
    Messages:
    1,792
    Likes Received:
    5,017
    The Chainsmokers - All We Know VH1HD 1080i HDTV DD2.0 H.264 CELOBRAZiL-HDMania [CC]

    [​IMG]


    Format : MPEG-TS
    File size : 180 MiB
    Duration : 3mn 33s
    Overall bit rate mode : Variable
    Overall bit rate : 7 054 Kbps

    Video
    ID : 5408 (0x1520)
    Menu ID : 625 (0x271)
    Format : AVC
    Format/Info : Advanced Video Codec
    Format profile : [email protected]
    Format settings, CABAC : Yes
    Format settings, ReFrames : 3 frames
    Codec ID : 27
    Duration : 3mn 34s
    Bit rate : 6 318 Kbps
    Width : 1 920 pixels
    Height : 1 080 pixels
    Display aspect ratio : 16:9
    Frame rate : 29.970 fps
    Color space : YUV
    Chroma subsampling : 4:2:0
    Bit depth : 8 bits
    Scan type : MBAFF
    Scan order : Top Field First
    Bits/(Pixel*Frame) : 0.102
    Stream size : 161 MiB (90%)

    Audio
    ID : 5409 (0x1521)
    Menu ID : 625 (0x271)
    Format : AC-3
    Format/Info : Audio Coding 3
    Mode extension : CM (complete main)
    Format settings, Endianness : Big
    Codec ID : 129
    Duration : 3mn 34s
    Bit rate mode : Constant
    Bit rate : 384 Kbps
    Channel(s) : 2 channels
    Channel positions : Front: L R
    Sampling rate : 48.0 KHz
    Bit depth : 16 bits
    Compression mode : Lossy
    Stream size : 9.81 MiB (5%)
    Language : English

    Text #1
    ID : 5408 (0x1520)-CC1
    Menu ID : 625 (0x271)
    Format : EIA-608
    Muxing mode : SCTE 128 / DTVCC Transport
    Muxing mode, more info : Muxed in Video #1
    Duration : 3mn 34s
    Bit rate mode : Constant
    Stream size : 0.00 Byte (0%)

    Text #2
    ID : 5408 (0x1520)-1
    Menu ID : 625 (0x271)
    Format : EIA-708
    Muxing mode : SCTE 128 / DTVCC Transport
    Muxing mode, more info : Muxed in Video #1
    Duration : 3mn 34s
    Bit rate mode : Constant
    Stream size : 0.00 Byte (0%)


    Link(s):
    Hidden Content:
    You must either reply or click 'Like' to see the hidden information contained here.
     
  2. Loading...


  3. rhea

    rhea Well-Known Member

    Joined:
    Jan 6, 2014
    Messages:
    5,403
    Likes Received:
    260
    thank you so much! :)
     
    CELOBRAZiL likes this.
  4. supakirtza

    supakirtza Member

    Joined:
    Oct 17, 2016
    Messages:
    174
    Likes Received:
    10
  5. Dreamer

    Dreamer Well-Known Member Capper Uploader

    Joined:
    Dec 4, 2014
    Messages:
    2,292
    Likes Received:
    2,126
    Thank you so much!
     
    CELOBRAZiL likes this.
  6. Zatimi

    Zatimi Active Member

    Joined:
    Aug 27, 2014
    Messages:
    604
    Likes Received:
    67
    thanks so much
     
    CELOBRAZiL likes this.
  7. madomanniaco

    madomanniaco Member

    Joined:
    May 18, 2015
    Messages:
    82
    Likes Received:
    1
    wowwwwwwwwwwwwwwwwwwwwwww
     
  8. valtersc

    valtersc Member

    Joined:
    Nov 19, 2014
    Messages:
    93
    Likes Received:
    2
    thank you