The Black Eyed Peas - The Time (Dirty Bit) (BridgeHD-1080i-MP2-Olgold)-HDMania

Discussion in 'Bridge HD' started by Olgold, Oct 11, 2016.

  1. Olgold

    Olgold Well-Known Member Capper

    Joined:
    Aug 19, 2015
    Messages:
    436
    Likes Received:
    1,700
    The Black Eyed Peas - The Time (Dirty Bit)
    [​IMG]
    General
    Format : MPEG-TS
    File size : 323 MiB
    Duration : 4 min 46 s
    Overall bit rate mode : Variable
    Overall bit rate : 9 401 kb/s

    Video
    Format : AVC
    Format/Info : Advanced Video Codec
    Format profile : [email protected]
    Format settings, CABAC : Yes
    Format settings, ReFrames : 4 frames
    Duration : 4 min 45 s
    Bit rate : 8 742 kb/s
    Width : 1 920 pixels
    Height : 1 080 pixels
    Display aspect ratio : 16:9
    Frame rate : 25.000 FPS
    Standard : Component
    Color space : YUV
    Chroma subsampling : 4:2:0
    Bit depth : 8 bits
    Scan type : Interlaced
    Scan type, store method : Separated fields
    Scan order : Top Field First
    Bits/(Pixel*Frame) : 0.169
    Stream size : 297 MiB (92%)
    Color range : Limited

    Audio
    Format : MPEG Audio
    Format version : Version 1
    Format profile : Layer 2
    Duration : 4 min 46 s
    Bit rate mode : Constant
    Bit rate : 192 kb/s
    Channel(s) : 2 channels
    Sampling rate : 48.0 kHz
    Compression mode : Lossy
    Delay relative to video : -488 ms
    Stream size : 6.57 MiB (2%)
    Password: Olgold

    Hidden Content:
    You must reply before you can see the hidden data contained here.
     
    lyana94, CELOBRAZiL and rhea like this.
  2. Loading...


  3. rhea

    rhea Well-Known Member

    Joined:
    Jan 6, 2014
    Messages:
    6,828
    Likes Received:
    746
    thank you so much
     
  4. CELOBRAZiL

    CELOBRAZiL Well-Known Member Capper V . I . P. Donor

    Joined:
    Oct 2, 2013
    Messages:
    4,045
    Likes Received:
    12,574
    Thank you so much! :)
     
  5. Dreamer

    Dreamer Lana Del Rey ♥ Halsey Capper V . I . P. Uploader

    Joined:
    Dec 4, 2014
    Messages:
    2,858
    Likes Received:
    4,205
    Thanks
     
  6. Praveen867

    Praveen867 Member

    Joined:
    Nov 14, 2016
    Messages:
    532
    Likes Received:
    3
    hank you so much!
     
  7. zhxliveing

    zhxliveing Active Member

    Joined:
    Sep 7, 2016
    Messages:
    524
    Likes Received:
    26
    thanks
     
  8. D3mon86

    D3mon86 Member

    Joined:
    Dec 19, 2016
    Messages:
    465
    Likes Received:
    5
    thanks
     
  9. dmc_xx

    dmc_xx Member

    Joined:
    Nov 27, 2015
    Messages:
    243
    Likes Received:
    3
    good vedeo thanks
     
  10. hanshermann

    hanshermann Well-Known Member Uploader

    Joined:
    Aug 24, 2016
    Messages:
    4,819
    Likes Received:
    2,969
    wahts taht
     
  11. revilo18

    revilo18 Well-Known Member

    Joined:
    May 26, 2016
    Messages:
    1,876
    Likes Received:
    85
    thankkk
     
  12. noriscout

    noriscout Active Member

    Joined:
    Apr 26, 2017
    Messages:
    290
    Likes Received:
    68
    Thanks, friend
     
  13. lyana94

    lyana94 Well-Known Member

    Joined:
    Jul 5, 2017
    Messages:
    1,208
    Likes Received:
    39
    th
    anks
     
  14. chello21

    chello21 Member

    Joined:
    Aug 5, 2017
    Messages:
    78
    Likes Received:
    0
  15. erroljr1977

    erroljr1977 Member

    Joined:
    Apr 18, 2017
    Messages:
    439
    Likes Received:
    11
    thanks