The Black Eyed Peas - The Time (Dirty Bit) (BridgeHD-1080i-MP2-Olgold)-HDMania

Discussion in 'Bridge HD' started by Olgold, Oct 11, 2016.

  1. Olgold

    Olgold Well-Known Member Capper

    Joined:
    Aug 19, 2015
    Messages:
    435
    Likes Received:
    1,503
    The Black Eyed Peas - The Time (Dirty Bit)
    [​IMG]
    General
    Format : MPEG-TS
    File size : 323 MiB
    Duration : 4 min 46 s
    Overall bit rate mode : Variable
    Overall bit rate : 9 401 kb/s

    Video
    Format : AVC
    Format/Info : Advanced Video Codec
    Format profile : [email protected]
    Format settings, CABAC : Yes
    Format settings, ReFrames : 4 frames
    Duration : 4 min 45 s
    Bit rate : 8 742 kb/s
    Width : 1 920 pixels
    Height : 1 080 pixels
    Display aspect ratio : 16:9
    Frame rate : 25.000 FPS
    Standard : Component
    Color space : YUV
    Chroma subsampling : 4:2:0
    Bit depth : 8 bits
    Scan type : Interlaced
    Scan type, store method : Separated fields
    Scan order : Top Field First
    Bits/(Pixel*Frame) : 0.169
    Stream size : 297 MiB (92%)
    Color range : Limited

    Audio
    Format : MPEG Audio
    Format version : Version 1
    Format profile : Layer 2
    Duration : 4 min 46 s
    Bit rate mode : Constant
    Bit rate : 192 kb/s
    Channel(s) : 2 channels
    Sampling rate : 48.0 kHz
    Compression mode : Lossy
    Delay relative to video : -488 ms
    Stream size : 6.57 MiB (2%)
    Password: Olgold

    Hidden Content:
    You must reply before you can see the hidden data contained here.
     
    CELOBRAZiL and rhea like this.
  2. Loading...


  3. rhea

    rhea Well-Known Member

    Joined:
    Jan 6, 2014
    Messages:
    5,676
    Likes Received:
    366
    thank you so much
     
  4. CELOBRAZiL

    CELOBRAZiL Well-Known Member Capper V . I . P. Donor

    Joined:
    Oct 2, 2013
    Messages:
    2,555
    Likes Received:
    7,205
    Thank you so much! :)
     
  5. Dreamer

    Dreamer Lana Del Rey ♥ Capper V . I . P. Uploader

    Joined:
    Dec 4, 2014
    Messages:
    2,512
    Likes Received:
    2,687
    Thanks
     
  6. Praveen867

    Praveen867 Member

    Joined:
    Nov 14, 2016
    Messages:
    488
    Likes Received:
    3
    hank you so much!
     
  7. zhxliveing

    zhxliveing Member

    Joined:
    Sep 7, 2016
    Messages:
    311
    Likes Received:
    14
    thanks
     
  8. D3mon86

    D3mon86 Member

    Joined:
    Dec 19, 2016
    Messages:
    453
    Likes Received:
    2
    thanks
     
  9. dmc_xx

    dmc_xx Member

    Joined:
    Nov 27, 2015
    Messages:
    169
    Likes Received:
    2
    good vedeo thanks
     
  10. hanshermann

    hanshermann Well-Known Member

    Joined:
    Aug 24, 2016
    Messages:
    3,545
    Likes Received:
    25
    wahts taht
     
  11. revilo18

    revilo18 Well-Known Member

    Joined:
    May 26, 2016
    Messages:
    1,513
    Likes Received:
    65
    thankkk
     
  12. noriscout

    noriscout Member

    Joined:
    Apr 26, 2017
    Messages:
    272
    Likes Received:
    15
    Thanks, friend