FEED The 58th Annual Grammy Awards 2016 [HDTV FEED 1080i]

Discussion in 'HD Live Performances' started by Dfrazzer, Feb 21, 2016.

  1. Dfrazzer

    Dfrazzer Super Moderator Staff Member Super Moderator Capper V . I . P. Donor

    Joined:
    Nov 4, 2013
    Messages:
    3,835
    Likes Received:
    7,539
    [​IMG] [​IMG] [​IMG] [​IMG] [​IMG] [​IMG] [​IMG] [​IMG] [​IMG] [​IMG] [​IMG] [​IMG] [​IMG] [​IMG] [​IMG] [​IMG] [​IMG] [​IMG] [​IMG] [​IMG] [​IMG] [​IMG] [​IMG] [​IMG] [​IMG] [​IMG]

    Code:
    General
    ID : 1 (0x1)
    Complete name : D:\2016\Grammy.2016.ts
    Format : MPEG-TS
    File size : 30.3 GiB
    Duration : 2h 35mn
    Overall bit rate mode : Constant
    Overall bit rate : 19.2 Mbps
    
    Video
    ID : 308 (0x134)
    Menu ID : 1 (0x1)
    Format : MPEG Video
    Format version : Version 2
    Format profile : [email protected]
    Format settings, BVOP : Yes
    Format settings, Matrix : Custom
    Format settings, GOP : M=3, N=12
    Format settings, picture structure : Frame
    Codec ID : 2
    Duration : 2h 35mn
    Bit rate mode : Variable
    Bit rate : 18.1 Mbps
    Maximum bit rate : 27.6 Mbps
    Width : 1 920 pixels
    Height : 1 080 pixels
    Display aspect ratio : 16:9
    Frame rate : 25.000 fps
    Color space : YUV
    Chroma subsampling : 4:2:0
    Bit depth : 8 bits
    Scan type : Interlaced
    Scan order : Top Field First
    Compression mode : Lossy
    Bits/(Pixel*Frame) : 0.348
    Time code of first frame : 00:00:00:00
    Time code source : Group of pictures header
    GOP, Open/Closed : Open
    Stream size : 19.6 GiB (65%)
    Color primaries : BT.709
    Transfer characteristics : BT.709
    Matrix coefficients : BT.709
    
    Audio
    ID : 256 (0x100)
    Menu ID : 1 (0x1)
    Format : MPEG Audio
    Format version : Version 1
    Format profile : Layer 2
    Codec ID : 3
    Duration : 2h 35mn
    Bit rate mode : Constant
    Bit rate : 192 Kbps
    Channel(s) : 2 channels
    Sampling rate : 48.0 KHz
    Compression mode : Lossy
    Delay relative to video : 1ms
    Stream size : 213 MiB (1%)
    Language : English
    
    Hidden Content:
    You must reply before you can see the hidden data contained here.
    Credit to original capper.
     
  2. Loading...


  3. abdi

    abdi Well-Known Member Uploader

    Joined:
    Sep 23, 2014
    Messages:
    1,604
    Likes Received:
    2,596
    thank you
     
  4. edgar

    edgar Well-Known Member

    Joined:
    Oct 12, 2013
    Messages:
    1,367
    Likes Received:
    1,232
    Thank you so much:love::love::love:
     
  5. mastodontosaurio

    mastodontosaurio Member

    Joined:
    Sep 29, 2015
    Messages:
    47
    Likes Received:
    0
    tgank sooo mych
     
  6. benja

    benja Active Member

    Joined:
    Jan 8, 2014
    Messages:
    965
    Likes Received:
    53
    Thank you!
     
  7. renegade

    renegade Member Donor

    Joined:
    Jan 28, 2014
    Messages:
    131
    Likes Received:
    10
    thank you
     
  8. yhkim

    yhkim Active Member

    Joined:
    Nov 19, 2013
    Messages:
    658
    Likes Received:
    6
    thank you so much
     
  9. LuisAngelCS

    LuisAngelCS Member

    Joined:
    Dec 18, 2014
    Messages:
    123
    Likes Received:
    3
    thank you!
     
  10. nino.navy

    nino.navy Well-Known Member

    Joined:
    May 30, 2014
    Messages:
    1,544
    Likes Received:
    46
    thanks a lot :D
     
  11. brianvip

    brianvip Active Member

    Joined:
    Oct 2, 2014
    Messages:
    689
    Likes Received:
    27
    thank you
     
  12. Justkidding1252

    Justkidding1252 Member

    Joined:
    Sep 27, 2015
    Messages:
    45
    Likes Received:
    3
    Thanks!!!
     
  13. Amir Hossien

    Amir Hossien Member

    Joined:
    Feb 6, 2014
    Messages:
    701
    Likes Received:
    21
    thank you
     
  14. alexzinter

    alexzinter New Member

    Joined:
    Feb 23, 2016
    Messages:
    29
    Likes Received:
    0
    GRAA!
     
    Last edited by a moderator: Feb 24, 2016
  15. kismakk

    kismakk Member

    Joined:
    Jul 2, 2014
    Messages:
    309
    Likes Received:
    5
    thanks
     
  16. rot86

    rot86 Member

    Joined:
    Jun 1, 2014
    Messages:
    366
    Likes Received:
    11
    thx for thisss
     
  17. Vinny

    Vinny Active Member

    Joined:
    Dec 26, 2013
    Messages:
    1,721
    Likes Received:
    7
    Thank U
     
  18. don

    don Member

    Joined:
    Nov 28, 2014
    Messages:
    96
    Likes Received:
    1
    thanks a lot
     
  19. feet65

    feet65 Well-Known Member

    Joined:
    Nov 12, 2013
    Messages:
    1,032
    Likes Received:
    51
    very good
     
  20. multimediafm

    multimediafm Well-Known Member Donor

    Joined:
    Mar 27, 2014
    Messages:
    8,089
    Likes Received:
    322
    Thanks :)
    The 58th Annual Grammy Awards 2016 [HDTV FEED 1080i]
     
  21. alex

    alex Well-Known Member

    Joined:
    Nov 21, 2013
    Messages:
    4,507
    Likes Received:
    333
    Thank you so much