FEED The 53rd Annual Grammy Awards 2011 17 performances - 1080i

Discussion in 'HD Live Performances' started by KaiKawaii, Jan 30, 2018.

  1. KaiKawaii

    KaiKawaii Well-Known Member Uploader

    Joined:
    Jun 1, 2017
    Messages:
    342
    Likes Received:
    373
    The 53rd Annual Grammy Awards 2011 17 performances - 1080i
    [​IMG]

    [​IMG]
    Code:
    General
    ID                             : 1 (0x1)
    Complete name                  : D:\01 Yolanda Adams, Christina Aguilera, Jennifer Hudson, Martina McBride & Florence Welch - Tribute to Aretha Franklin -  The 53rd Annual Grammy Awards 2011 1080i-FEED.ts
    Format                         : MPEG-TS
    File size                      : 3.17 GiB
    Duration                       : 12 min 22 s
    Overall bit rate mode          : Variable
    Overall bit rate               : 36.7 Mb/s
    Movie name                     : Program Name
    
    Video
    ID                             : 49 (0x31)
    Menu ID                        : 1 (0x1)
    Format                         : MPEG Video
    Format version                 : Version 2
    Format profile                 : 4:2:2@High
    Format settings, BVOP          : Yes
    Format settings, Matrix        : Custom
    Format settings, GOP           : M=3, N=15
    Format settings, picture struc : Frame
    Codec ID                       : 2
    Duration                       : 12 min 22 s
    Bit rate mode                  : Variable
    Bit rate                       : 34.6 Mb/s
    Maximum bit rate               : 35.5 Mb/s
    Width                          : 1 920 pixels
    Height                         : 1 080 pixels
    Display aspect ratio           : 16:9
    Frame rate                     : 29.970 (30000/1001) FPS
    Standard                       : Component
    Color space                    : YUV
    Chroma subsampling             : 4:2:2
    Bit depth                      : 8 bits
    Scan type                      : Interlaced
    Scan order                     : Top Field First
    Compression mode               : Lossy
    Bits/(Pixel*Frame)             : 0.557
    Time code of first frame       : 00:00:00;16
    Time code source               : Group of pictures header
    GOP, Open/Closed               : Open
    Stream size                    : 2.99 GiB (94%)
    Color primaries                : BT.709
    Transfer characteristics       : BT.709
    Matrix coefficients            : BT.709
    
    Audio
    ID                             : 52 (0x34)
    Menu ID                        : 1 (0x1)
    Format                         : MPEG Audio
    Format version                 : Version 1
    Format profile                 : Layer 2
    Mode                           : Joint stereo
    Codec ID                       : 3
    Duration                       : 12 min 22 s
    Bit rate mode                  : Constant
    Bit rate                       : 256 kb/s
    Channel(s)                     : 2 channels
    Sampling rate                  : 48.0 kHz
    Compression mode               : Lossy
    Delay relative to video        : 2 ms
    Stream size                    : 22.7 MiB (1%)
    Language                       : English
    
    Text #1
    ID                             : 49 (0x31)-CC1
    Menu ID                        : 1 (0x1)
    Format                         : EIA-608
    Muxing mode                    : A/53 / DTVCC Transport
    Muxing mode, more info         : Muxed in Video #1
    Duration                       : 12 min 22 s
    Bit rate mode                  : Constant
    Stream size                    : 0.00 Byte (0%)
    CaptionServiceName             : CC1
    
    Text #2
    ID                             : 49 (0x31)-CC3
    Menu ID                        : 1 (0x1)
    Format                         : EIA-608
    Muxing mode                    : A/53 / DTVCC Transport
    Muxing mode, more info         : Muxed in Video #1
    Duration                       : 12 min 22 s
    Bit rate mode                  : Constant
    Stream size                    : 0.00 Byte (0%)
    CaptionServiceName             : CC3
    
    Text #3
    ID                             : 49 (0x31)-1
    Menu ID                        : 1 (0x1)
    Format                         : EIA-708
    Muxing mode                    : A/53 / DTVCC Transport
    Muxing mode, more info         : Muxed in Video #1
    Duration                       : 12 min 22 s
    Bit rate mode                  : Constant
    Stream size                    : 0.00 Byte (0%)
    
    Text #4
    ID                             : 49 (0x31)-2
    Menu ID                        : 1 (0x1)
    Format                         : EIA-708
    Muxing mode                    : A/53 / DTVCC Transport
    Muxing mode, more info         : Muxed in Video #1
    Duration                       : 12 min 22 s
    Bit rate mode                  : Constant
    Stream size                    : 0.00 Byte (0%)

    [​IMG]
    Code:
    General
    ID                             : 1 (0x1)
    Complete name                  : D:\02 Lady Gaga - Born This Way - The 53rd Annual Grammy Awards 2011 1080i-FEED.ts
    Format                         : MPEG-TS
    File size                      : 1.32 GiB
    Duration                       : 5 min 9 s
    Overall bit rate mode          : Variable
    Overall bit rate               : 36.7 Mb/s
    Movie name                     : VALTES10R
    
    Video
    ID                             : 49 (0x31)
    Menu ID                        : 1 (0x1)
    Format                         : MPEG Video
    Format version                 : Version 2
    Format profile                 : 4:2:2@High
    Format settings, BVOP          : Yes
    Format settings, Matrix        : Custom
    Format settings, GOP           : M=3, N=15
    Format settings, picture struc : Frame
    Codec ID                       : 2
    Duration                       : 5 min 9 s
    Bit rate mode                  : Variable
    Bit rate                       : 34.6 Mb/s
    Maximum bit rate               : 35.5 Mb/s
    Width                          : 1 920 pixels
    Height                         : 1 080 pixels
    Display aspect ratio           : 16:9
    Frame rate                     : 29.970 (30000/1001) FPS
    Standard                       : Component
    Color space                    : YUV
    Chroma subsampling             : 4:2:2
    Bit depth                      : 8 bits
    Scan type                      : Interlaced
    Scan order                     : Top Field First
    Compression mode               : Lossy
    Bits/(Pixel*Frame)             : 0.556
    Time code of first frame       : 00:17:20;14
    Time code source               : Group of pictures header
    GOP, Open/Closed               : Open
    Stream size                    : 1.25 GiB (94%)
    Color primaries                : BT.709
    Transfer characteristics       : BT.709
    Matrix coefficients            : BT.709
    
    Audio
    ID                             : 52 (0x34)
    Menu ID                        : 1 (0x1)
    Format                         : MPEG Audio
    Format version                 : Version 1
    Format profile                 : Layer 2
    Mode                           : Joint stereo
    Codec ID                       : 3
    Duration                       : 5 min 9 s
    Bit rate mode                  : Constant
    Bit rate                       : 256 kb/s
    Channel(s)                     : 2 channels
    Sampling rate                  : 48.0 kHz
    Compression mode               : Lossy
    Delay relative to video        : 18 ms
    Stream size                    : 9.45 MiB (1%)
    Language                       : English
    
    Text #1
    ID                             : 49 (0x31)-CC1
    Menu ID                        : 1 (0x1)
    Format                         : EIA-608
    Muxing mode                    : A/53 / DTVCC Transport
    Muxing mode, more info         : Muxed in Video #1
    Duration                       : 5 min 9 s
    Bit rate mode                  : Constant
    Stream size                    : 0.00 Byte (0%)
    CaptionServiceName             : CC1
    
    Text #2
    ID                             : 49 (0x31)-CC3
    Menu ID                        : 1 (0x1)
    Format                         : EIA-608
    Muxing mode                    : A/53 / DTVCC Transport
    Muxing mode, more info         : Muxed in Video #1
    Duration                       : 5 min 9 s
    Bit rate mode                  : Constant
    Stream size                    : 0.00 Byte (0%)
    CaptionServiceName             : CC3
    
    Text #3
    ID                             : 49 (0x31)-1
    Menu ID                        : 1 (0x1)
    Format                         : EIA-708
    Muxing mode                    : A/53 / DTVCC Transport
    Muxing mode, more info         : Muxed in Video #1
    Duration                       : 5 min 9 s
    Bit rate mode                  : Constant
    Stream size                    : 0.00 Byte (0%)
    
    Text #4
    ID                             : 49 (0x31)-2
    Menu ID                        : 1 (0x1)
    Format                         : EIA-708
    Muxing mode                    : A/53 / DTVCC Transport
    Muxing mode, more info         : Muxed in Video #1
    Duration                       : 5 min 9 s
    Bit rate mode                  : Constant
    Stream size                    : 0.00 Byte (0%)

    [​IMG]
    Code:
    General
    ID                             : 1 (0x1)
    Complete name                  : D:\03 Miranda Lambert - The House That Built Me - The 53rd Annual Grammy Awards 2011 1080i-FEED.ts
    Format                         : MPEG-TS
    File size                      : 1.24 GiB
    Duration                       : 4 min 50 s
    Overall bit rate mode          : Variable
    Overall bit rate               : 36.7 Mb/s
    
    Video
    ID                             : 49 (0x31)
    Menu ID                        : 1 (0x1)
    Format                         : MPEG Video
    Format version                 : Version 2
    Format profile                 : 4:2:2@High
    Format settings, BVOP          : Yes
    Format settings, Matrix        : Custom
    Format settings, GOP           : M=3, N=15
    Format settings, picture struc : Frame
    Codec ID                       : 2
    Duration                       : 4 min 50 s
    Bit rate mode                  : Variable
    Bit rate                       : 34.6 Mb/s
    Maximum bit rate               : 35.5 Mb/s
    Width                          : 1 920 pixels
    Height                         : 1 080 pixels
    Display aspect ratio           : 16:9
    Frame rate                     : 29.970 (30000/1001) FPS
    Standard                       : Component
    Color space                    : YUV
    Chroma subsampling             : 4:2:2
    Bit depth                      : 8 bits
    Scan type                      : Interlaced
    Scan order                     : Top Field First
    Compression mode               : Lossy
    Bits/(Pixel*Frame)             : 0.557
    Time code of first frame       : 00:23:26;19
    Time code source               : Group of pictures header
    GOP, Open/Closed               : Open
    Stream size                    : 1.17 GiB (94%)
    Color primaries                : BT.709
    Transfer characteristics       : BT.709
    Matrix coefficients            : BT.709
    
    Audio
    ID                             : 52 (0x34)
    Menu ID                        : 1 (0x1)
    Format                         : MPEG Audio
    Format version                 : Version 1
    Format profile                 : Layer 2
    Mode                           : Joint stereo
    Codec ID                       : 3
    Duration                       : 4 min 51 s
    Bit rate mode                  : Constant
    Bit rate                       : 256 kb/s
    Channel(s)                     : 2 channels
    Sampling rate                  : 48.0 kHz
    Compression mode               : Lossy
    Delay relative to video        : 10 ms
    Stream size                    : 8.88 MiB (1%)
    Language                       : English
    
    Text #1
    ID                             : 49 (0x31)-CC1
    Menu ID                        : 1 (0x1)
    Format                         : EIA-608
    Muxing mode                    : A/53 / DTVCC Transport
    Muxing mode, more info         : Muxed in Video #1
    Duration                       : 4 min 50 s
    Bit rate mode                  : Constant
    Stream size                    : 0.00 Byte (0%)
    CaptionServiceName             : CC1
    
    Text #2
    ID                             : 49 (0x31)-CC3
    Menu ID                        : 1 (0x1)
    Format                         : EIA-608
    Muxing mode                    : A/53 / DTVCC Transport
    Muxing mode, more info         : Muxed in Video #1
    Duration                       : 4 min 50 s
    Bit rate mode                  : Constant
    Stream size                    : 0.00 Byte (0%)
    CaptionServiceName             : CC3
    
    Text #3
    ID                             : 49 (0x31)-1
    Menu ID                        : 1 (0x1)
    Format                         : EIA-708
    Muxing mode                    : A/53 / DTVCC Transport
    Muxing mode, more info         : Muxed in Video #1
    Duration                       : 4 min 50 s
    Bit rate mode                  : Constant
    Stream size                    : 0.00 Byte (0%)
    
    Text #4
    ID                             : 49 (0x31)-2
    Menu ID                        : 1 (0x1)
    Format                         : EIA-708
    Muxing mode                    : A/53 / DTVCC Transport
    Muxing mode, more info         : Muxed in Video #1
    Duration                       : 4 min 50 s
    Bit rate mode                  : Constant
    Stream size                    : 0.00 Byte (0%)

    [​IMG]
    Code:
    General
    ID                             : 1 (0x1)
    Complete name                  : D:\04 Muse - Uprising - The 53rd Annual Grammy Awards 2011 1080i-FEED.ts
    Format                         : MPEG-TS
    File size                      : 1.32 GiB
    Duration                       : 5 min 9 s
    Overall bit rate mode          : Variable
    Overall bit rate               : 36.7 Mb/s
    
    Video
    ID                             : 49 (0x31)
    Menu ID                        : 1 (0x1)
    Format                         : MPEG Video
    Format version                 : Version 2
    Format profile                 : 4:2:2@High
    Format settings, BVOP          : Yes
    Format settings, Matrix        : Custom
    Format settings, GOP           : M=3, N=15
    Format settings, picture struc : Frame
    Codec ID                       : 2
    Duration                       : 5 min 10 s
    Bit rate mode                  : Variable
    Bit rate                       : 34.6 Mb/s
    Maximum bit rate               : 35.5 Mb/s
    Width                          : 1 920 pixels
    Height                         : 1 080 pixels
    Display aspect ratio           : 16:9
    Frame rate                     : 29.970 (30000/1001) FPS
    Standard                       : Component
    Color space                    : YUV
    Chroma subsampling             : 4:2:2
    Bit depth                      : 8 bits
    Scan type                      : Interlaced
    Scan order                     : Top Field First
    Compression mode               : Lossy
    Bits/(Pixel*Frame)             : 0.557
    Time code of first frame       : 00:28:23;14
    Time code source               : Group of pictures header
    GOP, Open/Closed               : Open
    Stream size                    : 1.25 GiB (94%)
    Color primaries                : BT.709
    Transfer characteristics       : BT.709
    Matrix coefficients            : BT.709
    
    Audio
    ID                             : 52 (0x34)
    Menu ID                        : 1 (0x1)
    Format                         : MPEG Audio
    Format version                 : Version 1
    Format profile                 : Layer 2
    Mode                           : Joint stereo
    Codec ID                       : 3
    Duration                       : 5 min 10 s
    Bit rate mode                  : Constant
    Bit rate                       : 256 kb/s
    Channel(s)                     : 2 channels
    Sampling rate                  : 48.0 kHz
    Compression mode               : Lossy
    Delay relative to video        : 16 ms
    Stream size                    : 9.46 MiB (1%)
    Language                       : English
    
    Text #1
    ID                             : 49 (0x31)-CC1
    Menu ID                        : 1 (0x1)
    Format                         : EIA-608
    Muxing mode                    : A/53 / DTVCC Transport
    Muxing mode, more info         : Muxed in Video #1
    Duration                       : 5 min 10 s
    Bit rate mode                  : Constant
    Stream size                    : 0.00 Byte (0%)
    CaptionServiceName             : CC1
    
    Text #2
    ID                             : 49 (0x31)-CC3
    Menu ID                        : 1 (0x1)
    Format                         : EIA-608
    Muxing mode                    : A/53 / DTVCC Transport
    Muxing mode, more info         : Muxed in Video #1
    Duration                       : 5 min 10 s
    Bit rate mode                  : Constant
    Stream size                    : 0.00 Byte (0%)
    CaptionServiceName             : CC3
    
    Text #3
    ID                             : 49 (0x31)-1
    Menu ID                        : 1 (0x1)
    Format                         : EIA-708
    Muxing mode                    : A/53 / DTVCC Transport
    Muxing mode, more info         : Muxed in Video #1
    Duration                       : 5 min 10 s
    Bit rate mode                  : Constant
    Stream size                    : 0.00 Byte (0%)
    
    Text #4
    ID                             : 49 (0x31)-2
    Menu ID                        : 1 (0x1)
    Format                         : EIA-708
    Muxing mode                    : A/53 / DTVCC Transport
    Muxing mode, more info         : Muxed in Video #1
    Duration                       : 5 min 10 s
    Bit rate mode                  : Constant
    Stream size                    : 0.00 Byte (0%)

    [​IMG]
    Code:
    General
    ID                             : 1 (0x1)
    Complete name                  : D:\05 Bruno Mars, B.o.B. & Janelle Monáe - Nothin' on You, Grenade & Cold War - The 53rd Annual Grammy Awards 2011 1080i-FEED.ts
    Format                         : MPEG-TS
    File size                      : 2.17 GiB
    Duration                       : 8 min 27 s
    Overall bit rate mode          : Variable
    Overall bit rate               : 36.7 Mb/s
    Movie name                     : SUS2210F
    
    Video
    ID                             : 49 (0x31)
    Menu ID                        : 1 (0x1)
    Format                         : MPEG Video
    Format version                 : Version 2
    Format profile                 : 4:2:2@High
    Format settings, BVOP          : Yes
    Format settings, Matrix        : Custom
    Format settings, GOP           : M=3, N=15
    Format settings, picture struc : Frame
    Codec ID                       : 2
    Duration                       : 8 min 27 s
    Bit rate mode                  : Variable
    Bit rate                       : 34.6 Mb/s
    Maximum bit rate               : 35.5 Mb/s
    Width                          : 1 920 pixels
    Height                         : 1 080 pixels
    Display aspect ratio           : 16:9
    Frame rate                     : 29.970 (30000/1001) FPS
    Standard                       : Component
    Color space                    : YUV
    Chroma subsampling             : 4:2:2
    Bit depth                      : 8 bits
    Scan type                      : Interlaced
    Scan order                     : Top Field First
    Compression mode               : Lossy
    Bits/(Pixel*Frame)             : 0.557
    Time code of first frame       : 00:34:34;17
    Time code source               : Group of pictures header
    GOP, Open/Closed               : Open
    Stream size                    : 2.04 GiB (94%)
    Color primaries                : BT.709
    Transfer characteristics       : BT.709
    Matrix coefficients            : BT.709
    
    Audio
    ID                             : 52 (0x34)
    Menu ID                        : 1 (0x1)
    Format                         : MPEG Audio
    Format version                 : Version 1
    Format profile                 : Layer 2
    Mode                           : Joint stereo
    Codec ID                       : 3
    Duration                       : 8 min 28 s
    Bit rate mode                  : Constant
    Bit rate                       : 256 kb/s
    Channel(s)                     : 2 channels
    Sampling rate                  : 48.0 kHz
    Compression mode               : Lossy
    Delay relative to video        : 23 ms
    Stream size                    : 15.5 MiB (1%)
    Language                       : English
    
    Text #1
    ID                             : 49 (0x31)-CC1
    Menu ID                        : 1 (0x1)
    Format                         : EIA-608
    Muxing mode                    : A/53 / DTVCC Transport
    Muxing mode, more info         : Muxed in Video #1
    Duration                       : 8 min 27 s
    Bit rate mode                  : Constant
    Stream size                    : 0.00 Byte (0%)
    CaptionServiceName             : CC1
    
    Text #2
    ID                             : 49 (0x31)-CC3
    Menu ID                        : 1 (0x1)
    Format                         : EIA-608
    Muxing mode                    : A/53 / DTVCC Transport
    Muxing mode, more info         : Muxed in Video #1
    Duration                       : 8 min 27 s
    Bit rate mode                  : Constant
    Stream size                    : 0.00 Byte (0%)
    CaptionServiceName             : CC3
    
    Text #3
    ID                             : 49 (0x31)-1
    Menu ID                        : 1 (0x1)
    Format                         : EIA-708
    Muxing mode                    : A/53 / DTVCC Transport
    Muxing mode, more info         : Muxed in Video #1
    Duration                       : 8 min 27 s
    Bit rate mode                  : Constant
    Stream size                    : 0.00 Byte (0%)
    
    Text #4
    ID                             : 49 (0x31)-2
    Menu ID                        : 1 (0x1)
    Format                         : EIA-708
    Muxing mode                    : A/53 / DTVCC Transport
    Muxing mode, more info         : Muxed in Video #1
    Duration                       : 8 min 27 s
    Bit rate mode                  : Constant
    Stream size                    : 0.00 Byte (0%)

    [​IMG]
    Code:
    General
    ID                             : 1 (0x1)
    Complete name                  : D:\06 Justin Bieber ft. Jaden Smith - Baby & Never Say Never - The 53rd Annual Grammy Awards 2011 1080i-FEED.ts
    Format                         : MPEG-TS
    File size                      : 1.36 GiB
    Duration                       : 5 min 19 s
    Overall bit rate mode          : Variable
    Overall bit rate               : 36.6 Mb/s
    Movie name                     : NCIS3505N
    
    Video
    ID                             : 49 (0x31)
    Menu ID                        : 1 (0x1)
    Format                         : MPEG Video
    Format version                 : Version 2
    Format profile                 : 4:2:2@High
    Format settings, BVOP          : Yes
    Format settings, Matrix        : Custom
    Format settings, GOP           : M=3, N=15
    Format settings, picture struc : Frame
    Codec ID                       : 2
    Duration                       : 5 min 19 s
    Bit rate mode                  : Variable
    Bit rate                       : 34.6 Mb/s
    Maximum bit rate               : 35.5 Mb/s
    Width                          : 1 920 pixels
    Height                         : 1 080 pixels
    Display aspect ratio           : 16:9
    Frame rate                     : 29.970 (30000/1001) FPS
    Standard                       : Component
    Color space                    : YUV
    Chroma subsampling             : 4:2:2
    Bit depth                      : 8 bits
    Scan type                      : Interlaced
    Scan order                     : Top Field First
    Compression mode               : Lossy
    Bits/(Pixel*Frame)             : 0.556
    Time code of first frame       : 00:47:48;27
    Time code source               : Group of pictures header
    GOP, Open/Closed               : Open
    Stream size                    : 1.29 GiB (94%)
    Color primaries                : BT.709
    Transfer characteristics       : BT.709
    Matrix coefficients            : BT.709
    
    Audio
    ID                             : 52 (0x34)
    Menu ID                        : 1 (0x1)
    Format                         : MPEG Audio
    Format version                 : Version 1
    Format profile                 : Layer 2
    Mode                           : Joint stereo
    Codec ID                       : 3
    Duration                       : 5 min 19 s
    Bit rate mode                  : Constant
    Bit rate                       : 256 kb/s
    Channel(s)                     : 2 channels
    Sampling rate                  : 48.0 kHz
    Compression mode               : Lossy
    Delay relative to video        : 55 ms
    Stream size                    : 9.76 MiB (1%)
    Language                       : English
    
    Text #1
    ID                             : 49 (0x31)-CC1
    Menu ID                        : 1 (0x1)
    Format                         : EIA-608
    Muxing mode                    : A/53 / DTVCC Transport
    Muxing mode, more info         : Muxed in Video #1
    Duration                       : 5 min 19 s
    Bit rate mode                  : Constant
    Stream size                    : 0.00 Byte (0%)
    CaptionServiceName             : CC1
    
    Text #2
    ID                             : 49 (0x31)-CC3
    Menu ID                        : 1 (0x1)
    Format                         : EIA-608
    Muxing mode                    : A/53 / DTVCC Transport
    Muxing mode, more info         : Muxed in Video #1
    Duration                       : 5 min 19 s
    Bit rate mode                  : Constant
    Stream size                    : 0.00 Byte (0%)
    CaptionServiceName             : CC3
    
    Text #3
    ID                             : 49 (0x31)-1
    Menu ID                        : 1 (0x1)
    Format                         : EIA-708
    Muxing mode                    : A/53 / DTVCC Transport
    Muxing mode, more info         : Muxed in Video #1
    Duration                       : 5 min 19 s
    Bit rate mode                  : Constant
    Stream size                    : 0.00 Byte (0%)
    
    Text #4
    ID                             : 49 (0x31)-2
    Menu ID                        : 1 (0x1)
    Format                         : EIA-708
    Muxing mode                    : A/53 / DTVCC Transport
    Muxing mode, more info         : Muxed in Video #1
    Duration                       : 5 min 19 s
    Bit rate mode                  : Constant
    Stream size                    : 0.00 Byte (0%)

    [​IMG]
    Code:
    General
    ID                             : 1 (0x1)
    Complete name                  : D:\07 Usher & Justin Bieber - OMG - The 53rd Annual Grammy Awards 2011 1080i-FEED.ts
    Format                         : MPEG-TS
    File size                      : 689 MiB
    Duration                       : 2 min 37 s
    Overall bit rate mode          : Variable
    Overall bit rate               : 36.7 Mb/s
    
    Video
    ID                             : 49 (0x31)
    Menu ID                        : 1 (0x1)
    Format                         : MPEG Video
    Format version                 : Version 2
    Format profile                 : 4:2:2@High
    Format settings, BVOP          : Yes
    Format settings, Matrix        : Custom
    Format settings, GOP           : M=3, N=15
    Format settings, picture struc : Frame
    Codec ID                       : 2
    Duration                       : 2 min 37 s
    Bit rate mode                  : Variable
    Bit rate                       : 34.6 Mb/s
    Maximum bit rate               : 35.5 Mb/s
    Width                          : 1 920 pixels
    Height                         : 1 080 pixels
    Display aspect ratio           : 16:9
    Frame rate                     : 29.970 (30000/1001) FPS
    Standard                       : Component
    Color space                    : YUV
    Chroma subsampling             : 4:2:2
    Bit depth                      : 8 bits
    Scan type                      : Interlaced
    Scan order                     : Top Field First
    Compression mode               : Lossy
    Bits/(Pixel*Frame)             : 0.556
    Time code of first frame       : 00:53:10;07
    Time code source               : Group of pictures header
    GOP, Open/Closed               : Open
    Stream size                    : 649 MiB (94%)
    Color primaries                : BT.709
    Transfer characteristics       : BT.709
    Matrix coefficients            : BT.709
    
    Audio
    ID                             : 52 (0x34)
    Menu ID                        : 1 (0x1)
    Format                         : MPEG Audio
    Format version                 : Version 1
    Format profile                 : Layer 2
    Mode                           : Joint stereo
    Codec ID                       : 3
    Duration                       : 2 min 37 s
    Bit rate mode                  : Constant
    Bit rate                       : 256 kb/s
    Channel(s)                     : 2 channels
    Sampling rate                  : 48.0 kHz
    Compression mode               : Lossy
    Delay relative to video        : 1 ms
    Stream size                    : 4.81 MiB (1%)
    Language                       : English
    
    Text #1
    ID                             : 49 (0x31)-CC1
    Menu ID                        : 1 (0x1)
    Format                         : EIA-608
    Muxing mode                    : A/53 / DTVCC Transport
    Muxing mode, more info         : Muxed in Video #1
    Duration                       : 2 min 37 s
    Bit rate mode                  : Constant
    Stream size                    : 0.00 Byte (0%)
    CaptionServiceName             : CC1
    
    Text #2
    ID                             : 49 (0x31)-CC3
    Menu ID                        : 1 (0x1)
    Format                         : EIA-608
    Muxing mode                    : A/53 / DTVCC Transport
    Muxing mode, more info         : Muxed in Video #1
    Duration                       : 2 min 37 s
    Bit rate mode                  : Constant
    Stream size                    : 0.00 Byte (0%)
    CaptionServiceName             : CC3
    
    Text #3
    ID                             : 49 (0x31)-1
    Menu ID                        : 1 (0x1)
    Format                         : EIA-708
    Muxing mode                    : A/53 / DTVCC Transport
    Muxing mode, more info         : Muxed in Video #1
    Duration                       : 2 min 37 s
    Bit rate mode                  : Constant
    Stream size                    : 0.00 Byte (0%)
    
    Text #4
    ID                             : 49 (0x31)-2
    Menu ID                        : 1 (0x1)
    Format                         : EIA-708
    Muxing mode                    : A/53 / DTVCC Transport
    Muxing mode, more info         : Muxed in Video #1
    Duration                       : 2 min 37 s
    Bit rate mode                  : Constant
    Stream size                    : 0.00 Byte (0%)

    [​IMG]
    Code:
    General
    ID                             : 1 (0x1)
    Complete name                  : D:\08 Mumford & Sons, The Avett Brothers & Bob Dylan - The Cave, Head Full of Doubt & Maggie's Farm - The 53rd Annual Grammy Awards 2011 1080i-FEED.ts
    Format                         : MPEG-TS
    File size                      : 2.47 GiB
    Duration                       : 9 min 39 s
    Overall bit rate mode          : Variable
    Overall bit rate               : 36.7 Mb/s
    Movie name                     : MAD22TM20M
    
    Video
    ID                             : 49 (0x31)
    Menu ID                        : 1 (0x1)
    Format                         : MPEG Video
    Format version                 : Version 2
    Format profile                 : 4:2:2@High
    Format settings, BVOP          : Yes
    Format settings, Matrix        : Custom
    Format settings, GOP           : M=3, N=15
    Format settings, picture struc : Frame
    Codec ID                       : 2
    Duration                       : 9 min 39 s
    Bit rate mode                  : Variable
    Bit rate                       : 34.6 Mb/s
    Maximum bit rate               : 35.5 Mb/s
    Width                          : 1 920 pixels
    Height                         : 1 080 pixels
    Display aspect ratio           : 16:9
    Frame rate                     : 29.970 (30000/1001) FPS
    Standard                       : Component
    Color space                    : YUV
    Chroma subsampling             : 4:2:2
    Bit depth                      : 8 bits
    Scan type                      : Interlaced
    Scan order                     : Top Field First
    Compression mode               : Lossy
    Bits/(Pixel*Frame)             : 0.557
    Time code of first frame       : 01:02:16;21
    Time code source               : Group of pictures header
    GOP, Open/Closed               : Open
    Stream size                    : 2.33 GiB (94%)
    Color primaries                : BT.709
    Transfer characteristics       : BT.709
    Matrix coefficients            : BT.709
    
    Audio
    ID                             : 52 (0x34)
    Menu ID                        : 1 (0x1)
    Format                         : MPEG Audio
    Format version                 : Version 1
    Format profile                 : Layer 2
    Mode                           : Joint stereo
    Codec ID                       : 3
    Duration                       : 9 min 39 s
    Bit rate mode                  : Constant
    Bit rate                       : 256 kb/s
    Channel(s)                     : 2 channels
    Sampling rate                  : 48.0 kHz
    Compression mode               : Lossy
    Delay relative to video        : 18 ms
    Stream size                    : 17.7 MiB (1%)
    Language                       : English
    
    Text #1
    ID                             : 49 (0x31)-CC1
    Menu ID                        : 1 (0x1)
    Format                         : EIA-608
    Muxing mode                    : A/53 / DTVCC Transport
    Muxing mode, more info         : Muxed in Video #1
    Duration                       : 9 min 39 s
    Bit rate mode                  : Constant
    Stream size                    : 0.00 Byte (0%)
    CaptionServiceName             : CC1
    
    Text #2
    ID                             : 49 (0x31)-CC3
    Menu ID                        : 1 (0x1)
    Format                         : EIA-608
    Muxing mode                    : A/53 / DTVCC Transport
    Muxing mode, more info         : Muxed in Video #1
    Duration                       : 9 min 39 s
    Bit rate mode                  : Constant
    Stream size                    : 0.00 Byte (0%)
    CaptionServiceName             : CC3
    
    Text #3
    ID                             : 49 (0x31)-1
    Menu ID                        : 1 (0x1)
    Format                         : EIA-708
    Muxing mode                    : A/53 / DTVCC Transport
    Muxing mode, more info         : Muxed in Video #1
    Duration                       : 9 min 39 s
    Bit rate mode                  : Constant
    Stream size                    : 0.00 Byte (0%)
    
    Text #4
    ID                             : 49 (0x31)-2
    Menu ID                        : 1 (0x1)
    Format                         : EIA-708
    Muxing mode                    : A/53 / DTVCC Transport
    Muxing mode, more info         : Muxed in Video #1
    Duration                       : 9 min 39 s
    Bit rate mode                  : Constant
    Stream size                    : 0.00 Byte (0%)

    [​IMG]
    Code:
    General
    ID                             : 1 (0x1)
    Complete name                  : D:\09 Lady Antellbellum - If You Don't Know Me by Now, American Honey & Need You Now - The 53rd Annual Grammy Awards 2011 1080i-FEED.ts
    Format                         : MPEG-TS
    File size                      : 1.05 GiB
    Duration                       : 4 min 5 s
    Overall bit rate mode          : Variable
    Overall bit rate               : 36.7 Mb/s
    Movie name                     : LET22WK05
    
    Video
    ID                             : 49 (0x31)
    Menu ID                        : 1 (0x1)
    Format                         : MPEG Video
    Format version                 : Version 2
    Format profile                 : 4:2:2@High
    Format settings, BVOP          : Yes
    Format settings, Matrix        : Custom
    Format settings, GOP           : M=3, N=15
    Format settings, picture struc : Frame
    Codec ID                       : 2
    Duration                       : 4 min 5 s
    Bit rate mode                  : Variable
    Bit rate                       : 34.6 Mb/s
    Maximum bit rate               : 35.5 Mb/s
    Width                          : 1 920 pixels
    Height                         : 1 080 pixels
    Display aspect ratio           : 16:9
    Frame rate                     : 29.970 (30000/1001) FPS
    Standard                       : Component
    Color space                    : YUV
    Chroma subsampling             : 4:2:2
    Bit depth                      : 8 bits
    Scan type                      : Interlaced
    Scan order                     : Top Field First
    Compression mode               : Lossy
    Bits/(Pixel*Frame)             : 0.557
    Time code of first frame       : 01:14:52;08
    Time code source               : Group of pictures header
    GOP, Open/Closed               : Open
    Stream size                    : 1 012 MiB (94%)
    Color primaries                : BT.709
    Transfer characteristics       : BT.709
    Matrix coefficients            : BT.709
    
    Audio
    ID                             : 52 (0x34)
    Menu ID                        : 1 (0x1)
    Format                         : MPEG Audio
    Format version                 : Version 1
    Format profile                 : Layer 2
    Mode                           : Joint stereo
    Codec ID                       : 3
    Duration                       : 4 min 5 s
    Bit rate mode                  : Constant
    Bit rate                       : 256 kb/s
    Channel(s)                     : 2 channels
    Sampling rate                  : 48.0 kHz
    Compression mode               : Lossy
    Delay relative to video        : 19 ms
    Stream size                    : 7.50 MiB (1%)
    Language                       : English
    
    Text #1
    ID                             : 49 (0x31)-CC1
    Menu ID                        : 1 (0x1)
    Format                         : EIA-608
    Muxing mode                    : A/53 / DTVCC Transport
    Muxing mode, more info         : Muxed in Video #1
    Duration                       : 4 min 5 s
    Bit rate mode                  : Constant
    Stream size                    : 0.00 Byte (0%)
    CaptionServiceName             : CC1
    
    Text #2
    ID                             : 49 (0x31)-CC3
    Menu ID                        : 1 (0x1)
    Format                         : EIA-608
    Muxing mode                    : A/53 / DTVCC Transport
    Muxing mode, more info         : Muxed in Video #1
    Duration                       : 4 min 5 s
    Bit rate mode                  : Constant
    Stream size                    : 0.00 Byte (0%)
    CaptionServiceName             : CC3
    
    Text #3
    ID                             : 49 (0x31)-1
    Menu ID                        : 1 (0x1)
    Format                         : EIA-708
    Muxing mode                    : A/53 / DTVCC Transport
    Muxing mode, more info         : Muxed in Video #1
    Duration                       : 4 min 5 s
    Bit rate mode                  : Constant
    Stream size                    : 0.00 Byte (0%)
    
    Text #4
    ID                             : 49 (0x31)-2
    Menu ID                        : 1 (0x1)
    Format                         : EIA-708
    Muxing mode                    : A/53 / DTVCC Transport
    Muxing mode, more info         : Muxed in Video #1
    Duration                       : 4 min 5 s
    Bit rate mode                  : Constant
    Stream size                    : 0.00 Byte (0%)

    [​IMG]
    Code:
    General
    ID                             : 1 (0x1)
    Complete name                  : D:\10 Cee-Lo Green & Gwyneth Paltrow - Fuck You (Forget You) - The 53rd Annual Grammy Awards 2011 1080i-FEED.ts
    Format                         : MPEG-TS
    File size                      : 1.24 GiB
    Duration                       : 4 min 49 s
    Overall bit rate mode          : Variable
    Overall bit rate               : 36.7 Mb/s
    
    Video
    ID                             : 49 (0x31)
    Menu ID                        : 1 (0x1)
    Format                         : MPEG Video
    Format version                 : Version 2
    Format profile                 : 4:2:2@High
    Format settings, BVOP          : Yes
    Format settings, Matrix        : Custom
    Format settings, GOP           : M=3, N=15
    Format settings, picture struc : Frame
    Codec ID                       : 2
    Duration                       : 4 min 49 s
    Bit rate mode                  : Variable
    Bit rate                       : 34.6 Mb/s
    Maximum bit rate               : 35.5 Mb/s
    Width                          : 1 920 pixels
    Height                         : 1 080 pixels
    Display aspect ratio           : 16:9
    Frame rate                     : 29.970 (30000/1001) FPS
    Standard                       : Component
    Color space                    : YUV
    Chroma subsampling             : 4:2:2
    Bit depth                      : 8 bits
    Scan type                      : Interlaced
    Scan order                     : Top Field First
    Compression mode               : Lossy
    Bits/(Pixel*Frame)             : 0.557
    Time code of first frame       : 01:21:23;20
    Time code source               : Group of pictures header
    GOP, Open/Closed               : Open
    Stream size                    : 1.17 GiB (94%)
    Color primaries                : BT.709
    Transfer characteristics       : BT.709
    Matrix coefficients            : BT.709
    
    Audio
    ID                             : 52 (0x34)
    Menu ID                        : 1 (0x1)
    Format                         : MPEG Audio
    Format version                 : Version 1
    Format profile                 : Layer 2
    Mode                           : Joint stereo
    Codec ID                       : 3
    Duration                       : 4 min 49 s
    Bit rate mode                  : Constant
    Bit rate                       : 256 kb/s
    Channel(s)                     : 2 channels
    Sampling rate                  : 48.0 kHz
    Compression mode               : Lossy
    Delay relative to video        : 19 ms
    Stream size                    : 8.85 MiB (1%)
    Language                       : English
    
    Text #1
    ID                             : 49 (0x31)-CC1
    Menu ID                        : 1 (0x1)
    Format                         : EIA-608
    Muxing mode                    : A/53 / DTVCC Transport
    Muxing mode, more info         : Muxed in Video #1
    Duration                       : 4 min 49 s
    Bit rate mode                  : Constant
    Stream size                    : 0.00 Byte (0%)
    CaptionServiceName             : CC1
    
    Text #2
    ID                             : 49 (0x31)-CC3
    Menu ID                        : 1 (0x1)
    Format                         : EIA-608
    Muxing mode                    : A/53 / DTVCC Transport
    Muxing mode, more info         : Muxed in Video #1
    Duration                       : 4 min 49 s
    Bit rate mode                  : Constant
    Stream size                    : 0.00 Byte (0%)
    CaptionServiceName             : CC3
    
    Text #3
    ID                             : 49 (0x31)-1
    Menu ID                        : 1 (0x1)
    Format                         : EIA-708
    Muxing mode                    : A/53 / DTVCC Transport
    Muxing mode, more info         : Muxed in Video #1
    Duration                       : 4 min 49 s
    Bit rate mode                  : Constant
    Stream size                    : 0.00 Byte (0%)
    
    Text #4
    ID                             : 49 (0x31)-2
    Menu ID                        : 1 (0x1)
    Format                         : EIA-708
    Muxing mode                    : A/53 / DTVCC Transport
    Muxing mode, more info         : Muxed in Video #1
    Duration                       : 4 min 49 s
    Bit rate mode                  : Constant
    Stream size                    : 0.00 Byte (0%)

    [​IMG]
    Code:
    General
    ID                             : 1 (0x1)
    Complete name                  : D:\11 Katy Perry - Not Like the Movies & Teenage Dream - The 53rd Annual Grammy Awards 2011 1080i-FEED.ts
    Format                         : MPEG-TS
    File size                      : 1.37 GiB
    Duration                       : 5 min 22 s
    Overall bit rate mode          : Variable
    Overall bit rate               : 36.7 Mb/s
    Movie name                     : BLU2210
    
    Video
    ID                             : 49 (0x31)
    Menu ID                        : 1 (0x1)
    Format                         : MPEG Video
    Format version                 : Version 2
    Format profile                 : 4:2:2@High
    Format settings, BVOP          : Yes
    Format settings, Matrix        : Custom
    Format settings, GOP           : M=3, N=15
    Format settings, picture struc : Frame
    Codec ID                       : 2
    Duration                       : 5 min 22 s
    Bit rate mode                  : Variable
    Bit rate                       : 34.6 Mb/s
    Maximum bit rate               : 35.5 Mb/s
    Width                          : 1 920 pixels
    Height                         : 1 080 pixels
    Display aspect ratio           : 16:9
    Frame rate                     : 29.970 (30000/1001) FPS
    Standard                       : Component
    Color space                    : YUV
    Chroma subsampling             : 4:2:2
    Bit depth                      : 8 bits
    Scan type                      : Interlaced
    Scan order                     : Top Field First
    Compression mode               : Lossy
    Bits/(Pixel*Frame)             : 0.557
    Time code of first frame       : 01:31:25;20
    Time code source               : Group of pictures header
    GOP, Open/Closed               : Open
    Stream size                    : 1.30 GiB (94%)
    Color primaries                : BT.709
    Transfer characteristics       : BT.709
    Matrix coefficients            : BT.709
    
    Audio
    ID                             : 52 (0x34)
    Menu ID                        : 1 (0x1)
    Format                         : MPEG Audio
    Format version                 : Version 1
    Format profile                 : Layer 2
    Mode                           : Joint stereo
    Codec ID                       : 3
    Duration                       : 5 min 22 s
    Bit rate mode                  : Constant
    Bit rate                       : 256 kb/s
    Channel(s)                     : 2 channels
    Sampling rate                  : 48.0 kHz
    Compression mode               : Lossy
    Delay relative to video        : 17 ms
    Stream size                    : 9.83 MiB (1%)
    Language                       : English
    
    Text #1
    ID                             : 49 (0x31)-CC1
    Menu ID                        : 1 (0x1)
    Format                         : EIA-608
    Muxing mode                    : A/53 / DTVCC Transport
    Muxing mode, more info         : Muxed in Video #1
    Duration                       : 5 min 22 s
    Bit rate mode                  : Constant
    Stream size                    : 0.00 Byte (0%)
    CaptionServiceName             : CC1
    
    Text #2
    ID                             : 49 (0x31)-CC3
    Menu ID                        : 1 (0x1)
    Format                         : EIA-608
    Muxing mode                    : A/53 / DTVCC Transport
    Muxing mode, more info         : Muxed in Video #1
    Duration                       : 5 min 22 s
    Bit rate mode                  : Constant
    Stream size                    : 0.00 Byte (0%)
    CaptionServiceName             : CC3
    
    Text #3
    ID                             : 49 (0x31)-1
    Menu ID                        : 1 (0x1)
    Format                         : EIA-708
    Muxing mode                    : A/53 / DTVCC Transport
    Muxing mode, more info         : Muxed in Video #1
    Duration                       : 5 min 22 s
    Bit rate mode                  : Constant
    Stream size                    : 0.00 Byte (0%)
    
    Text #4
    ID                             : 49 (0x31)-2
    Menu ID                        : 1 (0x1)
    Format                         : EIA-708
    Muxing mode                    : A/53 / DTVCC Transport
    Muxing mode, more info         : Muxed in Video #1
    Duration                       : 5 min 22 s
    Bit rate mode                  : Constant
    Stream size                    : 0.00 Byte (0%)

    [​IMG]
    Code:
    General
    ID                             : 1 (0x1)
    Complete name                  : D:\12 Norah Jones, John Mayer & Keith Urban - Jolene (Tribute to Dolly Parton) - The 53rd Annual Grammy Awards 2011 1080i-FEED.ts
    Format                         : MPEG-TS
    File size                      : 417 MiB
    Duration                       : 1 min 35 s
    Overall bit rate mode          : Variable
    Overall bit rate               : 36.6 Mb/s
    
    Video
    ID                             : 49 (0x31)
    Menu ID                        : 1 (0x1)
    Format                         : MPEG Video
    Format version                 : Version 2
    Format profile                 : 4:2:2@High
    Format settings, BVOP          : Yes
    Format settings, Matrix        : Custom
    Format settings, GOP           : M=3, N=15
    Format settings, picture struc : Frame
    Codec ID                       : 2
    Duration                       : 1 min 35 s
    Bit rate mode                  : Variable
    Bit rate                       : 34.6 Mb/s
    Maximum bit rate               : 35.5 Mb/s
    Width                          : 1 920 pixels
    Height                         : 1 080 pixels
    Display aspect ratio           : 16:9
    Frame rate                     : 29.970 (30000/1001) FPS
    Standard                       : Component
    Color space                    : YUV
    Chroma subsampling             : 4:2:2
    Bit depth                      : 8 bits
    Scan type                      : Interlaced
    Scan order                     : Top Field First
    Compression mode               : Lossy
    Bits/(Pixel*Frame)             : 0.556
    Time code of first frame       : 01:36:47;15
    Time code source               : Group of pictures header
    GOP, Open/Closed               : Open
    Stream size                    : 393 MiB (94%)
    Color primaries                : BT.709
    Transfer characteristics       : BT.709
    Matrix coefficients            : BT.709
    
    Audio
    ID                             : 52 (0x34)
    Menu ID                        : 1 (0x1)
    Format                         : MPEG Audio
    Format version                 : Version 1
    Format profile                 : Layer 2
    Mode                           : Joint stereo
    Codec ID                       : 3
    Duration                       : 1 min 35 s
    Bit rate mode                  : Constant
    Bit rate                       : 256 kb/s
    Channel(s)                     : 2 channels
    Sampling rate                  : 48.0 kHz
    Compression mode               : Lossy
    Delay relative to video        : 4 ms
    Stream size                    : 2.91 MiB (1%)
    Language                       : English
    
    Text #1
    ID                             : 49 (0x31)-CC1
    Menu ID                        : 1 (0x1)
    Format                         : EIA-608
    Muxing mode                    : A/53 / DTVCC Transport
    Muxing mode, more info         : Muxed in Video #1
    Duration                       : 1 min 35 s
    Bit rate mode                  : Constant
    Stream size                    : 0.00 Byte (0%)
    CaptionServiceName             : CC1
    
    Text #2
    ID                             : 49 (0x31)-CC3
    Menu ID                        : 1 (0x1)
    Format                         : EIA-608
    Muxing mode                    : A/53 / DTVCC Transport
    Muxing mode, more info         : Muxed in Video #1
    Duration                       : 1 min 35 s
    Bit rate mode                  : Constant
    Stream size                    : 0.00 Byte (0%)
    CaptionServiceName             : CC3
    
    Text #3
    ID                             : 49 (0x31)-1
    Menu ID                        : 1 (0x1)
    Format                         : EIA-708
    Muxing mode                    : A/53 / DTVCC Transport
    Muxing mode, more info         : Muxed in Video #1
    Duration                       : 1 min 35 s
    Bit rate mode                  : Constant
    Stream size                    : 0.00 Byte (0%)
    
    Text #4
    ID                             : 49 (0x31)-2
    Menu ID                        : 1 (0x1)
    Format                         : EIA-708
    Muxing mode                    : A/53 / DTVCC Transport
    Muxing mode, more info         : Muxed in Video #1
    Duration                       : 1 min 35 s
    Bit rate mode                  : Constant
    Stream size                    : 0.00 Byte (0%)

    [​IMG]
    Code:
    General
    ID                             : 1 (0x1)
    Complete name                  : D:\13 Eminem, Rihanna, Adam Levine, Skylar Grey & Dr Dre - Love the Way You Lie (Part II) & I Need a Doctor - The 53rd Annual Grammy Awards 2011 1080i-FEED.ts
    Format                         : MPEG-TS
    File size                      : 2.00 GiB
    Duration                       : 7 min 48 s
    Overall bit rate mode          : Variable
    Overall bit rate               : 36.7 Mb/s
    Movie name                     : NCLA3505N
    
    Video
    ID                             : 49 (0x31)
    Menu ID                        : 1 (0x1)
    Format                         : MPEG Video
    Format version                 : Version 2
    Format profile                 : 4:2:2@High
    Format settings, BVOP          : Yes
    Format settings, Matrix        : Custom
    Format settings, GOP           : M=3, N=15
    Format settings, picture struc : Frame
    Codec ID                       : 2
    Duration                       : 7 min 48 s
    Bit rate mode                  : Variable
    Bit rate                       : 34.6 Mb/s
    Maximum bit rate               : 35.5 Mb/s
    Width                          : 1 920 pixels
    Height                         : 1 080 pixels
    Display aspect ratio           : 16:9
    Frame rate                     : 29.970 (30000/1001) FPS
    Standard                       : Component
    Color space                    : YUV
    Chroma subsampling             : 4:2:2
    Bit depth                      : 8 bits
    Scan type                      : Interlaced
    Scan order                     : Top Field First
    Compression mode               : Lossy
    Bits/(Pixel*Frame)             : 0.557
    Time code of first frame       : 01:42:00;29
    Time code source               : Group of pictures header
    GOP, Open/Closed               : Open
    Stream size                    : 1.89 GiB (94%)
    Color primaries                : BT.709
    Transfer characteristics       : BT.709
    Matrix coefficients            : BT.709
    
    Audio
    ID                             : 52 (0x34)
    Menu ID                        : 1 (0x1)
    Format                         : MPEG Audio
    Format version                 : Version 1
    Format profile                 : Layer 2
    Mode                           : Joint stereo
    Codec ID                       : 3
    Duration                       : 7 min 48 s
    Bit rate mode                  : Constant
    Bit rate                       : 256 kb/s
    Channel(s)                     : 2 channels
    Sampling rate                  : 48.0 kHz
    Compression mode               : Lossy
    Delay relative to video        : 20 ms
    Stream size                    : 14.3 MiB (1%)
    Language                       : English
    
    Text #1
    ID                             : 49 (0x31)-CC1
    Menu ID                        : 1 (0x1)
    Format                         : EIA-608
    Muxing mode                    : A/53 / DTVCC Transport
    Muxing mode, more info         : Muxed in Video #1
    Duration                       : 7 min 48 s
    Bit rate mode                  : Constant
    Stream size                    : 0.00 Byte (0%)
    CaptionServiceName             : CC1
    
    Text #2
    ID                             : 49 (0x31)-CC3
    Menu ID                        : 1 (0x1)
    Format                         : EIA-608
    Muxing mode                    : A/53 / DTVCC Transport
    Muxing mode, more info         : Muxed in Video #1
    Duration                       : 7 min 48 s
    Bit rate mode                  : Constant
    Stream size                    : 0.00 Byte (0%)
    CaptionServiceName             : CC3
    
    Text #3
    ID                             : 49 (0x31)-1
    Menu ID                        : 1 (0x1)
    Format                         : EIA-708
    Muxing mode                    : A/53 / DTVCC Transport
    Muxing mode, more info         : Muxed in Video #1
    Duration                       : 7 min 48 s
    Bit rate mode                  : Constant
    Stream size                    : 0.00 Byte (0%)
    
    Text #4
    ID                             : 49 (0x31)-2
    Menu ID                        : 1 (0x1)
    Format                         : EIA-708
    Muxing mode                    : A/53 / DTVCC Transport
    Muxing mode, more info         : Muxed in Video #1
    Duration                       : 7 min 48 s
    Bit rate mode                  : Constant
    Stream size                    : 0.00 Byte (0%)

    [​IMG]
    Code:
    General
    ID                             : 1 (0x1)
    Complete name                  : D:\14 Mick Jagger & Raphael Saadiq - Everbody Needs Somebody to Love (Tribute to Solomon Burke) - The 53rd Annual Grammy Awards 2011 1080i-FEED.ts
    Format                         : MPEG-TS
    File size                      : 1.56 GiB
    Duration                       : 6 min 4 s
    Overall bit rate mode          : Variable
    Overall bit rate               : 36.7 Mb/s
    
    Video
    ID                             : 49 (0x31)
    Menu ID                        : 1 (0x1)
    Format                         : MPEG Video
    Format version                 : Version 2
    Format profile                 : 4:2:2@High
    Format settings, BVOP          : Yes
    Format settings, Matrix        : Custom
    Format settings, GOP           : M=3, N=15
    Format settings, picture struc : Frame
    Codec ID                       : 2
    Duration                       : 6 min 4 s
    Bit rate mode                  : Variable
    Bit rate                       : 34.6 Mb/s
    Maximum bit rate               : 35.5 Mb/s
    Width                          : 1 920 pixels
    Height                         : 1 080 pixels
    Display aspect ratio           : 16:9
    Frame rate                     : 29.970 (30000/1001) FPS
    Standard                       : Component
    Color space                    : YUV
    Chroma subsampling             : 4:2:2
    Bit depth                      : 8 bits
    Scan type                      : Interlaced
    Scan order                     : Top Field First
    Compression mode               : Lossy
    Bits/(Pixel*Frame)             : 0.557
    Time code of first frame       : 01:59:46;09
    Time code source               : Group of pictures header
    GOP, Open/Closed               : Open
    Stream size                    : 1.47 GiB (94%)
    Color primaries                : BT.709
    Transfer characteristics       : BT.709
    Matrix coefficients            : BT.709
    
    Audio
    ID                             : 52 (0x34)
    Menu ID                        : 1 (0x1)
    Format                         : MPEG Audio
    Format version                 : Version 1
    Format profile                 : Layer 2
    Mode                           : Joint stereo
    Codec ID                       : 3
    Duration                       : 6 min 4 s
    Bit rate mode                  : Constant
    Bit rate                       : 256 kb/s
    Channel(s)                     : 2 channels
    Sampling rate                  : 48.0 kHz
    Compression mode               : Lossy
    Delay relative to video        : 20 ms
    Stream size                    : 11.1 MiB (1%)
    Language                       : English
    
    Text #1
    ID                             : 49 (0x31)-CC1
    Menu ID                        : 1 (0x1)
    Format                         : EIA-608
    Muxing mode                    : A/53 / DTVCC Transport
    Muxing mode, more info         : Muxed in Video #1
    Duration                       : 6 min 4 s
    Bit rate mode                  : Constant
    Stream size                    : 0.00 Byte (0%)
    CaptionServiceName             : CC1
    
    Text #2
    ID                             : 49 (0x31)-CC3
    Menu ID                        : 1 (0x1)
    Format                         : EIA-608
    Muxing mode                    : A/53 / DTVCC Transport
    Muxing mode, more info         : Muxed in Video #1
    Duration                       : 6 min 4 s
    Bit rate mode                  : Constant
    Stream size                    : 0.00 Byte (0%)
    CaptionServiceName             : CC3
    
    Text #3
    ID                             : 49 (0x31)-1
    Menu ID                        : 1 (0x1)
    Format                         : EIA-708
    Muxing mode                    : A/53 / DTVCC Transport
    Muxing mode, more info         : Muxed in Video #1
    Duration                       : 6 min 4 s
    Bit rate mode                  : Constant
    Stream size                    : 0.00 Byte (0%)
    
    Text #4
    ID                             : 49 (0x31)-2
    Menu ID                        : 1 (0x1)
    Format                         : EIA-708
    Muxing mode                    : A/53 / DTVCC Transport
    Muxing mode, more info         : Muxed in Video #1
    Duration                       : 6 min 4 s
    Bit rate mode                  : Constant
    Stream size                    : 0.00 Byte (0%)

    [​IMG]
    Code:
    General
    ID                             : 1 (0x1)
    Complete name                  : D:\15 Barbra Streisand - Evergreen - The 53rd Annual Grammy Awards 2011 1080i-FEED.ts
    Format                         : MPEG-TS
    File size                      : 1.18 GiB
    Duration                       : 4 min 37 s
    Overall bit rate mode          : Variable
    Overall bit rate               : 36.7 Mb/s
    Movie name                     : SUS2205
    
    Video
    ID                             : 49 (0x31)
    Menu ID                        : 1 (0x1)
    Format                         : MPEG Video
    Format version                 : Version 2
    Format profile                 : 4:2:2@High
    Format settings, BVOP          : Yes
    Format settings, Matrix        : Custom
    Format settings, GOP           : M=3, N=15
    Format settings, picture struc : Frame
    Codec ID                       : 2
    Duration                       : 4 min 37 s
    Bit rate mode                  : Variable
    Bit rate                       : 34.6 Mb/s
    Maximum bit rate               : 35.5 Mb/s
    Width                          : 1 920 pixels
    Height                         : 1 080 pixels
    Display aspect ratio           : 16:9
    Frame rate                     : 29.970 (30000/1001) FPS
    Standard                       : Component
    Color space                    : YUV
    Chroma subsampling             : 4:2:2
    Bit depth                      : 8 bits
    Scan type                      : Interlaced
    Scan order                     : Top Field First
    Compression mode               : Lossy
    Bits/(Pixel*Frame)             : 0.557
    Time code of first frame       : 02:08:22;23
    Time code source               : Group of pictures header
    GOP, Open/Closed               : Open
    Stream size                    : 1.12 GiB (94%)
    Color primaries                : BT.709
    Transfer characteristics       : BT.709
    Matrix coefficients            : BT.709
    
    Audio
    ID                             : 52 (0x34)
    Menu ID                        : 1 (0x1)
    Format                         : MPEG Audio
    Format version                 : Version 1
    Format profile                 : Layer 2
    Mode                           : Joint stereo
    Codec ID                       : 3
    Duration                       : 4 min 37 s
    Bit rate mode                  : Constant
    Bit rate                       : 256 kb/s
    Channel(s)                     : 2 channels
    Sampling rate                  : 48.0 kHz
    Compression mode               : Lossy
    Delay relative to video        : 12 ms
    Stream size                    : 8.47 MiB (1%)
    Language                       : English
    
    Text #1
    ID                             : 49 (0x31)-CC1
    Menu ID                        : 1 (0x1)
    Format                         : EIA-608
    Muxing mode                    : A/53 / DTVCC Transport
    Muxing mode, more info         : Muxed in Video #1
    Duration                       : 4 min 37 s
    Bit rate mode                  : Constant
    Stream size                    : 0.00 Byte (0%)
    CaptionServiceName             : CC1
    
    Text #2
    ID                             : 49 (0x31)-CC3
    Menu ID                        : 1 (0x1)
    Format                         : EIA-608
    Muxing mode                    : A/53 / DTVCC Transport
    Muxing mode, more info         : Muxed in Video #1
    Duration                       : 4 min 37 s
    Bit rate mode                  : Constant
    Stream size                    : 0.00 Byte (0%)
    CaptionServiceName             : CC3
    
    Text #3
    ID                             : 49 (0x31)-1
    Menu ID                        : 1 (0x1)
    Format                         : EIA-708
    Muxing mode                    : A/53 / DTVCC Transport
    Muxing mode, more info         : Muxed in Video #1
    Duration                       : 4 min 37 s
    Bit rate mode                  : Constant
    Stream size                    : 0.00 Byte (0%)
    
    Text #4
    ID                             : 49 (0x31)-2
    Menu ID                        : 1 (0x1)
    Format                         : EIA-708
    Muxing mode                    : A/53 / DTVCC Transport
    Muxing mode, more info         : Muxed in Video #1
    Duration                       : 4 min 37 s
    Bit rate mode                  : Constant
    Stream size                    : 0.00 Byte (0%)

    [​IMG]
    Code:
    General
    ID                             : 1 (0x1)
    Complete name                  : D:\16 Rihanna ft. Drake - What's My Name - The 53rd Annual Grammy Awards 2011 1080i-FEED.ts
    Format                         : MPEG-TS
    File size                      : 1 004 MiB
    Duration                       : 3 min 49 s
    Overall bit rate mode          : Variable
    Overall bit rate               : 36.7 Mb/s
    Movie name                     : SUR2205
    
    Video
    ID                             : 49 (0x31)
    Menu ID                        : 1 (0x1)
    Format                         : MPEG Video
    Format version                 : Version 2
    Format profile                 : 4:2:2@High
    Format settings, BVOP          : Yes
    Format settings, Matrix        : Custom
    Format settings, GOP           : M=3, N=15
    Format settings, picture struc : Frame
    Codec ID                       : 2
    Duration                       : 3 min 49 s
    Bit rate mode                  : Variable
    Bit rate                       : 34.6 Mb/s
    Maximum bit rate               : 35.5 Mb/s
    Width                          : 1 920 pixels
    Height                         : 1 080 pixels
    Display aspect ratio           : 16:9
    Frame rate                     : 29.970 (30000/1001) FPS
    Standard                       : Component
    Color space                    : YUV
    Chroma subsampling             : 4:2:2
    Bit depth                      : 8 bits
    Scan type                      : Interlaced
    Scan order                     : Top Field First
    Compression mode               : Lossy
    Bits/(Pixel*Frame)             : 0.556
    Time code of first frame       : 02:18:11;25
    Time code source               : Group of pictures header
    GOP, Open/Closed               : Open
    Stream size                    : 947 MiB (94%)
    Color primaries                : BT.709
    Transfer characteristics       : BT.709
    Matrix coefficients            : BT.709
    
    Audio
    ID                             : 52 (0x34)
    Menu ID                        : 1 (0x1)
    Format                         : MPEG Audio
    Format version                 : Version 1
    Format profile                 : Layer 2
    Mode                           : Joint stereo
    Codec ID                       : 3
    Duration                       : 3 min 49 s
    Bit rate mode                  : Constant
    Bit rate                       : 256 kb/s
    Channel(s)                     : 2 channels
    Sampling rate                  : 48.0 kHz
    Compression mode               : Lossy
    Delay relative to video        : 18 ms
    Stream size                    : 7.01 MiB (1%)
    Language                       : English
    
    Text #1
    ID                             : 49 (0x31)-CC1
    Menu ID                        : 1 (0x1)
    Format                         : EIA-608
    Muxing mode                    : A/53 / DTVCC Transport
    Muxing mode, more info         : Muxed in Video #1
    Duration                       : 3 min 49 s
    Bit rate mode                  : Constant
    Stream size                    : 0.00 Byte (0%)
    CaptionServiceName             : CC1
    
    Text #2
    ID                             : 49 (0x31)-CC3
    Menu ID                        : 1 (0x1)
    Format                         : EIA-608
    Muxing mode                    : A/53 / DTVCC Transport
    Muxing mode, more info         : Muxed in Video #1
    Duration                       : 3 min 49 s
    Bit rate mode                  : Constant
    Stream size                    : 0.00 Byte (0%)
    CaptionServiceName             : CC3
    
    Text #3
    ID                             : 49 (0x31)-1
    Menu ID                        : 1 (0x1)
    Format                         : EIA-708
    Muxing mode                    : A/53 / DTVCC Transport
    Muxing mode, more info         : Muxed in Video #1
    Duration                       : 3 min 49 s
    Bit rate mode                  : Constant
    Stream size                    : 0.00 Byte (0%)
    
    Text #4
    ID                             : 49 (0x31)-2
    Menu ID                        : 1 (0x1)
    Format                         : EIA-708
    Muxing mode                    : A/53 / DTVCC Transport
    Muxing mode, more info         : Muxed in Video #1
    Duration                       : 3 min 49 s
    Bit rate mode                  : Constant
    Stream size                    : 0.00 Byte (0%)

    [​IMG]
    Code:
    General
    ID                             : 1 (0x1)
    Complete name                  : D:\17 Arcade Fire - Month of May & Ready to Start - The 53rd Annual Grammy Awards 2011 1080i-FEED.ts
    Format                         : MPEG-TS
    File size                      : 3.07 GiB
    Duration                       : 11 min 59 s
    Overall bit rate mode          : Variable
    Overall bit rate               : 36.6 Mb/s
    Movie name                     : LHF10HH30
    
    Video
    ID                             : 49 (0x31)
    Menu ID                        : 1 (0x1)
    Format                         : MPEG Video
    Format version                 : Version 2
    Format profile                 : 4:2:2@High
    Format settings, BVOP          : Yes
    Format settings, Matrix        : Custom
    Format settings, GOP           : M=3, N=15
    Format settings, picture struc : Frame
    Codec ID                       : 2
    Duration                       : 11 min 59 s
    Bit rate mode                  : Variable
    Bit rate                       : 34.6 Mb/s
    Maximum bit rate               : 35.5 Mb/s
    Width                          : 1 920 pixels
    Height                         : 1 080 pixels
    Display aspect ratio           : 16:9
    Frame rate                     : 29.970 (30000/1001) FPS
    Standard                       : Component
    Color space                    : YUV
    Chroma subsampling             : 4:2:2
    Bit depth                      : 8 bits
    Scan type                      : Interlaced
    Scan order                     : Top Field First
    Compression mode               : Lossy
    Bits/(Pixel*Frame)             : 0.556
    Time code of first frame       : 02:29:28;09
    Time code source               : Group of pictures header
    GOP, Open/Closed               : Open
    Stream size                    : 2.90 GiB (94%)
    Color primaries                : BT.709
    Transfer characteristics       : BT.709
    Matrix coefficients            : BT.709
    
    Audio
    ID                             : 52 (0x34)
    Menu ID                        : 1 (0x1)
    Format                         : MPEG Audio
    Format version                 : Version 1
    Format profile                 : Layer 2
    Mode                           : Joint stereo
    Codec ID                       : 3
    Duration                       : 11 min 59 s
    Bit rate mode                  : Constant
    Bit rate                       : 256 kb/s
    Channel(s)                     : 2 channels
    Sampling rate                  : 48.0 kHz
    Compression mode               : Lossy
    Delay relative to video        : 5 ms
    Stream size                    : 22.0 MiB (1%)
    Language                       : English
    
    Text #1
    ID                             : 49 (0x31)-CC1
    Menu ID                        : 1 (0x1)
    Format                         : EIA-608
    Muxing mode                    : A/53 / DTVCC Transport
    Muxing mode, more info         : Muxed in Video #1
    Duration                       : 11 min 59 s
    Bit rate mode                  : Constant
    Stream size                    : 0.00 Byte (0%)
    CaptionServiceName             : CC1
    
    Text #2
    ID                             : 49 (0x31)-CC3
    Menu ID                        : 1 (0x1)
    Format                         : EIA-608
    Muxing mode                    : A/53 / DTVCC Transport
    Muxing mode, more info         : Muxed in Video #1
    Duration                       : 11 min 59 s
    Bit rate mode                  : Constant
    Stream size                    : 0.00 Byte (0%)
    CaptionServiceName             : CC3
    
    Text #3
    ID                             : 49 (0x31)-1
    Menu ID                        : 1 (0x1)
    Format                         : EIA-708
    Muxing mode                    : A/53 / DTVCC Transport
    Muxing mode, more info         : Muxed in Video #1
    Duration                       : 11 min 59 s
    Bit rate mode                  : Constant
    Stream size                    : 0.00 Byte (0%)
    
    Text #4
    ID                             : 49 (0x31)-2
    Menu ID                        : 1 (0x1)
    Format                         : EIA-708
    Muxing mode                    : A/53 / DTVCC Transport
    Muxing mode, more info         : Muxed in Video #1
    Duration                       : 11 min 59 s
    Bit rate mode                  : Constant
    Stream size                    : 0.00 Byte (0%)

    Hidden Content:
    You must reply before you can see the hidden data contained here.
    Credits to the original capper :)
     
    Last edited: Feb 4, 2018
  2. Loading...


  3. detroit1

    detroit1 Well-Known Member

    Joined:
    Jan 6, 2014
    Messages:
    2,843
    Likes Received:
    390
    thank you
     
  4. Amauri Luiz

    Amauri Luiz Well-Known Member

    Joined:
    Jan 14, 2014
    Messages:
    1,706
    Likes Received:
    63
    Thank you so much!
     
  5. 010juninho

    010juninho Active Member

    Joined:
    Jan 16, 2016
    Messages:
    954
    Likes Received:
    36
  6. KobeAnd8

    KobeAnd8 Member

    Joined:
    Aug 17, 2017
    Messages:
    93
    Likes Received:
    1
    thanks
     
  7. blackford

    blackford Active Member

    Joined:
    Apr 18, 2017
    Messages:
    226
    Likes Received:
    31
    Thank you
     
  8. Gonzalo

    Gonzalo Well-Known Member

    Joined:
    Sep 22, 2014
    Messages:
    1,239
    Likes Received:
    26
    Gracias
     
  9. jaspir21

    jaspir21 Member

    Joined:
    Jul 2, 2016
    Messages:
    45
    Likes Received:
    5
    Thanks!
     
  10. florian07

    florian07 Member

    Joined:
    Dec 14, 2016
    Messages:
    63
    Likes Received:
    8
    thanks you
     
  11. robenn

    robenn Active Member

    Joined:
    May 29, 2014
    Messages:
    640
    Likes Received:
    71
    Thank you!
     
  12. lugurod

    lugurod Member

    Joined:
    Oct 4, 2014
    Messages:
    146
    Likes Received:
    9
    genial gracias
     
  13. aaron

    aaron Active Member

    Joined:
    Dec 17, 2013
    Messages:
    242
    Likes Received:
    172
    thanksss
     
  14. georgex7

    georgex7 Member

    Joined:
    Oct 28, 2015
    Messages:
    140
    Likes Received:
    15
    thankssssssss
     
  15. mizdot

    mizdot Well-Known Member

    Joined:
    Nov 13, 2014
    Messages:
    2,355
    Likes Received:
    90
    tnx man
     
  16. Pavulon

    Pavulon Well-Known Member Donor

    Joined:
    Mar 22, 2016
    Messages:
    4,270
    Likes Received:
    725
    thanks
     
  17. mariagabibbo

    mariagabibbo Member

    Joined:
    Mar 25, 2017
    Messages:
    35
    Likes Received:
    1
  18. Naner77

    Naner77 Member

    Joined:
    Aug 9, 2016
    Messages:
    311
    Likes Received:
    17
    Obrigado
     
  19. dersullana

    dersullana Active Member

    Joined:
    Dec 21, 2015
    Messages:
    928
    Likes Received:
    50
  20. brenoallex

    brenoallex Active Member

    Joined:
    Sep 4, 2016
    Messages:
    328
    Likes Received:
    28
    thanks
     
  21. carlos69

    carlos69 Well-Known Member

    Joined:
    Dec 17, 2013
    Messages:
    1,223
    Likes Received:
    90