FEED The 2017 Teen Choice Awards BACKHAUL 720p 40Mbps MPA2.0 MPEG2-ALANiS

Discussion in 'HD Live Performances' started by CELOBRAZiL, Sep 18, 2019.

  1. CELOBRAZiL

    CELOBRAZiL Well-Known Member Capper V . I . P. Donor

    Joined:
    Oct 2, 2013
    Messages:
    7,763
    Likes Received:
    26,811
    The 2017 Teen Choice Awards BACKHAUL 720p 40Mbps MPA2.0 MPEG2-ALANiS

    [​IMG]



    Format : MPEG-TS
    File size : 25.7 GiB
    Duration : 1 h 30 min
    Overall bit rate mode : Variable
    Overall bit rate : 40.8 Mb/s

    Video
    ID : 308 (0x134)
    Menu ID : 1 (0x1)
    Format : MPEG Video
    Format version : Version 2
    Format profile : Main@High
    Format settings : CustomMatrix / BVOP
    Format settings, BVOP : Yes
    Format settings, Matrix : Custom
    Format settings, GOP : M=3, N=15
    Codec ID : 2
    Duration : 1 h 30 min
    Bit rate mode : Variable
    Bit rate : 38.4 Mb/s
    Maximum bit rate : 42.0 Mb/s
    Width : 1 280 pixels
    Height : 720 pixels
    Display aspect ratio : 16:9
    Frame rate : 59.940 (60000/1001) FPS
    Color space : YUV
    Chroma subsampling : 4:2:0
    Bit depth : 8 bits
    Scan type : Progressive
    Compression mode : Lossy
    Bits/(Pixel*Frame) : 0.695
    Time code of first frame : 00:00:00;00
    Time code source : Group of pictures header
    GOP, Open/Closed : Open
    GOP, Open/Closed of first frame : Closed
    Stream size : 24.2 GiB (94%)
    Color primaries : BT.709
    Transfer characteristics : BT.709
    Matrix coefficients : BT.709

    Audio
    ID : 256 (0x100)
    Menu ID : 1 (0x1)
    Format : MPEG Audio
    Format version : Version 1
    Format profile : Layer 2
    Format settings : Intensity Stereo + MS Stereo
    Codec ID : 3
    Duration : 1 h 30 min
    Bit rate mode : Constant
    Bit rate : 384 kb/s
    Channel(s) : 2 channels
    Sampling rate : 48.0 kHz
    Frame rate : 41.667 FPS (1152 SPF)
    Compression mode : Lossy
    Stream size : 248 MiB (1%)
    Language : English



    Link(s):
    Hidden Content:
    You must either reply or click 'Like' to see the hidden information contained here.
     
    djg666, apl3, rkn9 and 4 others like this.
  2. Loading...


  3. CELOBRAZiL

    CELOBRAZiL Well-Known Member Capper V . I . P. Donor

    Joined:
    Oct 2, 2013
    Messages:
    7,763
    Likes Received:
    26,811
    :love::love::love:

    Added GOOGLE DRIVE links! :)
     
    ThePixelFarm likes this.
  4. Jenkins

    Jenkins Well-Known Member

    Joined:
    May 30, 2019
    Messages:
    5,938
    Likes Received:
    111
    This isn't available in 1080?

    Thanks, no matter what :) :love:
     
    CELOBRAZiL likes this.
  5. Dream66

    Dream66 Active Member

    Joined:
    Jan 24, 2016
    Messages:
    964
    Likes Received:
    215
    Thanks for the full live version :) :victory:
     
    CELOBRAZiL likes this.
  6. ThePixelFarm

    ThePixelFarm Livin' in a dream... Capper V . I . P.

    Joined:
    Aug 31, 2018
    Messages:
    1,727
    Likes Received:
    3,646
    Many thanks... :victory::super:
     
    CELOBRAZiL likes this.
  7. Amauri Luiz

    Amauri Luiz Well-Known Member

    Joined:
    Jan 14, 2014
    Messages:
    2,547
    Likes Received:
    151
    Thank you
     
    CELOBRAZiL likes this.
  8. multimediafm

    multimediafm Well-Known Member Donor

    Joined:
    Mar 27, 2014
    Messages:
    15,416
    Likes Received:
    1,401
    Thanks:):super:
     
    CELOBRAZiL likes this.
  9. cacogenius

    cacogenius Member

    Joined:
    Apr 24, 2016
    Messages:
    32
    Likes Received:
    2
    Thanks!
     
    CELOBRAZiL likes this.
  10. nino.navy

    nino.navy Well-Known Member

    Joined:
    May 30, 2014
    Messages:
    3,982
    Likes Received:
    286
    thanks so much
     
  11. thesparkly1

    thesparkly1 Well-Known Member

    Joined:
    May 5, 2017
    Messages:
    1,173
    Likes Received:
    83