Thalía - Seduccion.VOB (lpcm-promo-ntsc)

Discussion in 'SD Live Performances' started by kevin roman, Sep 24, 2015.

  1. kevin roman

    kevin roman Well-Known Member

    Joined:
    Jun 1, 2015
    Messages:
    321
    Likes Received:
    529
    Thalía - Seduccion.VOB (lpcm-promo-ntsc)

    [​IMG]

    Video
    ID : 224 (0xE0)
    Format : MPEG Video
    Format version : Version 2
    Format profile : Main@Main
    Format settings, BVOP : Yes
    Format settings, Matrix : Custom
    Format settings, GOP : Variable
    Format settings, picture struc : Frame
    Duration : 4mn 3s
    Bit rate mode : Variable
    Bit rate : 5 795 Kbps
    Maximum bit rate : 8 000 Kbps
    Width : 720 pixels
    Height : 480 pixels
    Display aspect ratio : 4:3
    Frame rate : 29.970 fps
    Standard : NTSC
    Color space : YUV
    Chroma subsampling : 4:2:0
    Bit depth : 8 bits
    Scan type : Interlaced
    Scan order : Top Field First
    Compression mode : Lossy
    Bits/(Pixel*Frame) : 0.560
    Time code of first frame : 00:00:00:00
    Time code source : Group of pictures header
    GOP, Open/Closed : Closed
    Stream size : 168 MiB (77%)
    Writing library : TMPGEnc 3.0 XPress Version. 3.0.4.24
    Color primaries : BT.601 PAL
    Transfer characteristics : BT.470 System B, BT.470 System G
    Matrix coefficients : FCC 73.682

    Audio
    ID : 189 (0xBD)-160 (0xA0)
    Format : PCM
    Format settings, Endianness : Big
    Format settings, Sign : Signed
    Muxing mode : DVD-Video
    Duration : 4mn 3s
    Bit rate mode : Constant
    Bit rate : 1 536 Kbps
    Channel(s) : 2 channels
    Sampling rate : 48.0 KHz
    Bit depth : 16 bits
    Stream size : 44.5 MiB (21%)

    Hidden Content:
    You must either reply or click 'Like' to see the hidden information contained here.
     
    naty moore 88, daraga, mikbal and 4 others like this.
  2. Loading...


  3. Cesar

    Cesar Member

    Joined:
    Nov 11, 2013
    Messages:
    469
    Likes Received:
    16
    Thank you
     
    kevin roman likes this.
  4. 777josem

    777josem ProRes 1080p LPCM

    Joined:
    Sep 1, 2014
    Messages:
    3,788
    Likes Received:
    3,640
    Muchas gracias!:)
     
    kevin roman likes this.
  5. Johan Pinzon

    Johan Pinzon Member

    Joined:
    Aug 15, 2016
    Messages:
    370
    Likes Received:
    19
    THANK YOU
     
  6. yilder1

    yilder1 Active Member

    Joined:
    Aug 25, 2016
    Messages:
    398
    Likes Received:
    82
    thanks
     
  7. exterminador

    exterminador Well-Known Member

    Joined:
    Jul 3, 2016
    Messages:
    2,505
    Likes Received:
    212
  8. 3veronicas

    3veronicas Well-Known Member

    Joined:
    Aug 26, 2016
    Messages:
    1,952
    Likes Received:
    98
    Thanks!
     
  9. junior.ca

    junior.ca Well-Known Member

    Joined:
    Jun 1, 2014
    Messages:
    1,906
    Likes Received:
    99
    OBRIGADO
     
  10. xxdfw80

    xxdfw80 Member

    Joined:
    Apr 28, 2017
    Messages:
    69
    Likes Received:
    8
    thanks
     
  11. derekdilan

    derekdilan Member

    Joined:
    Jan 13, 2017
    Messages:
    71
    Likes Received:
    0
  12. Bruno77

    Bruno77 Well-Known Member

    Joined:
    Sep 12, 2016
    Messages:
    2,032
    Likes Received:
    40
    Thanks
     
  13. junior.ca

    junior.ca Well-Known Member

    Joined:
    Jun 1, 2014
    Messages:
    1,906
    Likes Received:
    99
    obrigado
     
  14. funhawg

    funhawg Member

    Joined:
    Jan 4, 2014
    Messages:
    240
    Likes Received:
    4
    Thank you
     
  15. ErnestoHot

    ErnestoHot Member

    Joined:
    May 16, 2015
    Messages:
    407
    Likes Received:
    9
  16. jerrmx

    jerrmx Active Member

    Joined:
    Sep 8, 2016
    Messages:
    762
    Likes Received:
    44
    gracias
     
  17. larryxd

    larryxd Member

    Joined:
    Jun 3, 2016
    Messages:
    142
    Likes Received:
    5
    gracias
     
  18. dinhotwain

    dinhotwain Well-Known Member

    Joined:
    Jan 1, 2015
    Messages:
    1,211
    Likes Received:
    143
  19. sigosiendo

    sigosiendo Member

    Joined:
    Oct 30, 2018
    Messages:
    189
    Likes Received:
    7
    mil gracias!!!
     
  20. Jesus Miguel Rivero

    Jesus Miguel Rivero Well-Known Member

    Joined:
    Jul 9, 2015
    Messages:
    1,377
    Likes Received:
    34