FEED Teen Choice Awards 2019 - Red Carpet BACKHAUL 720p HDTV MPA2.0 H.264-TrollHD

Discussion in 'Interviews / TV shows / Others' started by CELOBRAZiL, Aug 13, 2019.

  1. CELOBRAZiL

    CELOBRAZiL Well-Known Member Capper V . I . P. Donor

    Joined:
    Oct 2, 2013
    Messages:
    7,960
    Likes Received:
    27,761
    Teen Choice Awards 2019 - Red Carpet BACKHAUL 720p HDTV MPA2.0 H.264-TrollHD

    [​IMG]



    Format : Matroska
    Format version : Version 4
    File size : 12.5 GiB
    Duration : 55 min 19 s
    Overall bit rate : 32.4 Mb/s
    Encoded date : UTC 2019-08-12 04:34:31
    Writing application : mkvmerge v30.0.0 ('Interstellar') 64-bit
    Writing library : libebml v1.3.6 + libmatroska v1.4.9

    Video
    ID : 1
    Format : AVC
    Format/Info : Advanced Video Codec
    Format profile : High 4:2:2@L4.1
    Format settings : CABAC / 6 Ref Frames
    Format settings, CABAC : Yes
    Format settings, RefFrames : 6 frames
    Format settings, GOP : M=4, N=32
    Codec ID : V_MPEG4/ISO/AVC
    Duration : 55 min 19 s
    Bit rate : 32.0 Mb/s
    Width : 1 280 pixels
    Height : 720 pixels
    Display aspect ratio : 16:9
    Frame rate mode : Constant
    Frame rate : 59.940 (60000/1001) FPS
    Color space : YUV
    Chroma subsampling : 4:2:2
    Bit depth : 8 bits
    Scan type : Progressive
    Bits/(Pixel*Frame) : 0.579
    Stream size : 12.4 GiB (99%)
    Language : English
    Default : Yes
    Forced : No
    Color range : Limited
    Color primaries : BT.709
    Transfer characteristics : BT.709
    Matrix coefficients : BT.709

    Audio
    ID : 2
    Format : MPEG Audio
    Format version : Version 1
    Format profile : Layer 2
    Codec ID : A_MPEG/L2
    Codec ID/Hint : MP2
    Duration : 55 min 19 s
    Bit rate mode : Constant
    Bit rate : 384 kb/s
    Channel(s) : 2 channels
    Sampling rate : 48.0 kHz
    Frame rate : 41.667 FPS (1152 SPF)
    Compression mode : Lossy
    Stream size : 152 MiB (1%)
    Language : English
    Default : Yes
    Forced : No



    Link(s):
    Hidden Content:
    You must either reply or click 'Like' to see the hidden information contained here.
     
    Last edited: Aug 13, 2019
    pm51, TheTigger, Lassox and 3 others like this.
  2. Loading...


  3. CELOBRAZiL

    CELOBRAZiL Well-Known Member Capper V . I . P. Donor

    Joined:
    Oct 2, 2013
    Messages:
    7,960
    Likes Received:
    27,761
    I'm uploading... Just wait! :)
     
    eks22 likes this.
  4. Bouncer

    Bouncer Active Member

    Joined:
    Jan 5, 2016
    Messages:
    798
    Likes Received:
    43
    tks tks
     
    CELOBRAZiL likes this.
  5. CELOBRAZiL

    CELOBRAZiL Well-Known Member Capper V . I . P. Donor

    Joined:
    Oct 2, 2013
    Messages:
    7,960
    Likes Received:
    27,761
    Added GOOGLE DRIVE link! :)
     
  6. Danielcha

    Danielcha Active Member

    Joined:
    Sep 20, 2014
    Messages:
    599
    Likes Received:
    40
    muito obrigado
     
    CELOBRAZiL likes this.
  7. santa321

    santa321 Well-Known Member

    Joined:
    Dec 7, 2013
    Messages:
    1,975
    Likes Received:
    93
    thank you
     
    CELOBRAZiL likes this.
  8. nino.navy

    nino.navy Well-Known Member

    Joined:
    May 30, 2014
    Messages:
    4,059
    Likes Received:
    292
    YASS Love it ! do you also have the FEED for the show pleaaase ? :)
     
    CELOBRAZiL likes this.
  9. Pham tuan

    Pham tuan Well-Known Member

    Joined:
    Dec 23, 2018
    Messages:
    1,127
    Likes Received:
    119
    thanks
     
    CELOBRAZiL likes this.
  10. CELOBRAZiL

    CELOBRAZiL Well-Known Member Capper V . I . P. Donor

    Joined:
    Oct 2, 2013
    Messages:
    7,960
    Likes Received:
    27,761
  11. M:SummerLove

    M:SummerLove Member

    Joined:
    Aug 15, 2019
    Messages:
    39
    Likes Received:
    3
    Thank you!
     
    CELOBRAZiL likes this.
  12. buffnfaith

    buffnfaith Member

    Joined:
    Jun 24, 2014
    Messages:
    233
    Likes Received:
    24
    Thanks.
     
    CELOBRAZiL likes this.
  13. Jenkins

    Jenkins Well-Known Member

    Joined:
    May 30, 2019
    Messages:
    24,480
    Likes Received:
    398
    THANKS
     
    CELOBRAZiL likes this.