MOVIE Teen Beach Movie (2013) 720p Amazon WEB-DL DD+ 5.1 x264-TVSmash

Discussion in 'Cinema Center' started by nyuszika7h, Dec 4, 2017.

  1. nyuszika7h

    nyuszika7h Well-Known Member

    Joined:
    May 18, 2016
    Messages:
    485
    Likes Received:
    1,362

    This is a lossless rip from Amazon.

    [​IMG] [​IMG] [​IMG] [​IMG]

    Code:
    General
    Unique ID                                : 236512188682947036532852048928992558613 (0xB1EE973429E963B19CEC573B5D2A7E15)
    Complete name                            : Teen.Beach.Movie.2013.720p.AMZN.WEB-DL.DDP5.1.x264-TVSmash.mkv
    Format                                   : Matroska
    Format version                           : Version 4 / Version 2
    File size                                : 2.83 GiB
    Duration                                 : 1 h 35 min
    Overall bit rate mode                    : Variable
    Overall bit rate                         : 4 269 kb/s
    Encoded date                             : UTC 2017-11-22 22:22:10
    Writing application                      : mkvmerge v17.0.0 ('Be Ur Friend') 64-bit
    Writing library                          : libebml v1.3.5 + libmatroska v1.4.8
    
    Video
    ID                                       : 1
    Format                                   : AVC
    Format/Info                              : Advanced Video Codec
    Format profile                           : High@L3.1
    Format settings                          : CABAC / 5 Ref Frames
    Format settings, CABAC                   : Yes
    Format settings, ReFrames                : 5 frames
    Codec ID                                 : V_MPEG4/ISO/AVC
    Duration                                 : 1 h 35 min
    Bit rate mode                            : Variable
    Bit rate                                 : 3 627 kb/s
    Maximum bit rate                         : 4 500 kb/s
    Width                                    : 1 280 pixels
    Height                                   : 720 pixels
    Display aspect ratio                     : 16:9
    Frame rate mode                          : Constant
    Frame rate                               : 23.976 (24000/1001) FPS
    Color space                              : YUV
    Chroma subsampling                       : 4:2:0
    Bit depth                                : 8 bits
    Scan type                                : Progressive
    Bits/(Pixel*Frame)                       : 0.164
    Stream size                              : 2.41 GiB (85%)
    Writing library                          : x264 core 148 r2623 d5b2374
    Encoding settings                        : cabac=1 / ref=5 / deblock=1:-1:-1 / analyse=0x3:0x133 / me=umh / subme=9 / psy=1 / psy_rd=1.00:0.15 / mixed_ref=1 / me_range=24 / chroma_me=1 / trellis=2 / 8x8dct=1 / cqm=0 / deadzone=21,11 / fast_pskip=1 / chroma_qp_offset=-3 / threads=22 / lookahead_threads=3 / sliced_threads=0 / nr=150 / decimate=1 / interlaced=0 / bluray_compat=0 / constrained_intra=0 / bframes=8 / b_pyramid=2 / b_adapt=2 / b_bias=0 / direct=3 / weightb=1 / open_gop=0 / weightp=2 / keyint=120 / keyint_min=61 / scenecut=0 / intra_refresh=0 / rc_lookahead=120 / rc=crf / mbtree=1 / crf=18.0 / qcomp=0.60 / qpmin=0 / qpmax=69 / qpstep=4 / vbv_maxrate=4500 / vbv_bufsize=17500 / crf_max=0.0 / nal_hrd=vbr / filler=0 / ip_ratio=1.40 / aq=3:1.00
    Default                                  : Yes
    Forced                                   : No
    Color range                              : Limited
    Color primaries                          : BT.709
    Transfer characteristics                 : BT.709
    Matrix coefficients                      : BT.709
    
    Audio
    ID                                       : 2
    Format                                   : E-AC-3
    Format/Info                              : Enhanced Audio Coding 3
    Codec ID                                 : A_EAC3
    Duration                                 : 1 h 35 min
    Bit rate mode                            : Constant
    Bit rate                                 : 640 kb/s
    Channel(s)                               : 6 channels
    Channel positions                        : Front: L C R, Side: L R, LFE
    Sampling rate                            : 48.0 kHz
    Frame rate                               : 187.500 FPS (256 SPF)
    Compression mode                         : Lossy
    Stream size                              : 435 MiB (15%)
    Language                                 : English
    Service kind                             : Complete Main
    Default                                  : Yes
    Forced                                   : No
    
    Text
    ID                                       : 3
    Format                                   : UTF-8
    Codec ID                                 : S_TEXT/UTF8
    Codec ID/Info                            : UTF-8 Plain Text
    Duration                                 : 1 h 34 min
    Bit rate                                 : 69 b/s
    Count of elements                        : 1593
    Stream size                              : 48.1 KiB (0%)
    Language                                 : English
    Default                                  : No
    Forced                                   : No
    

    Hidden Content:
    You must either reply or click 'Like' to see the hidden information contained here.
     
  2. Loading...


  3. FanofTheStars

    FanofTheStars Well-Known Member

    Joined:
    Feb 11, 2017
    Messages:
    1,983
    Likes Received:
    167
  4. akxiahsim

    akxiahsim Member

    Joined:
    Jan 9, 2016
    Messages:
    341
    Likes Received:
    18
  5. acciojay

    acciojay Member

    Joined:
    Apr 8, 2017
    Messages:
    166
    Likes Received:
    10
    thank you!
     
  6. santa321

    santa321 Well-Known Member

    Joined:
    Dec 7, 2013
    Messages:
    1,690
    Likes Received:
    62
    thank you