Taylor Swift - You Belong With Me (1080i Palladia AC3 MPEG-CDMan)

Discussion in 'PALLADIA' started by adam dark, Jan 4, 2014.

  1. adam dark

    adam dark Video Music Lover <3 V . I . P.

    Joined:
    Dec 5, 2013
    Messages:
    2,549
    Likes Received:
    4,239
    Taylor Swift - You Belong With Me
    (1080i Palladia AC3 MPEG-CDMan)


    [​IMG]
    [​IMG]
    [​IMG]
    [​IMG]
    [​IMG]
    [​IMG]
    Code:
    General
    ID                             : 1 (0x1)
    Complete name                  : Taylor Swift - You Belong With Me (1080i Palladia AC3 MPEG-CDMan).ts
    Format                         : MPEG-TS
    File size                      : 407 MiB
    Duration                       : 3mn 46s
    Overall bit rate mode          : Variable
    Overall bit rate               : 15.0 Mbps
    
    Video
    ID                             : 17 (0x11)
    Menu ID                        : 1 (0x1)
    Format                         : MPEG Video
    Format version                 : Version 2
    Format profile                 : [email protected]
    Format settings, BVOP          : Yes
    Format settings, Matrix        : Custom
    Format settings, GOP           : M=2, N=14
    Codec ID                       : 2
    Duration                       : 3mn 46s
    Bit rate mode                  : Variable
    Bit rate                       : 13.9 Mbps
    Maximum bit rate               : 22.0 Mbps
    Width                          : 1 920 pixels
    Height                         : 1 080 pixels
    Display aspect ratio           : 16:9
    Frame rate                     : 29.970 fps
    Color space                    : YUV
    Chroma subsampling             : 4:2:0
    Bit depth                      : 8 bits
    Scan type                      : Interlaced
    Scan order                     : Top Field First
    Compression mode               : Lossy
    Bits/(Pixel*Frame)             : 0.224
    Time code of first frame       : 15:50:19:14
    Time code source               : Group of pictures header
    Stream size                    : 376 MiB (92%)
    
    Audio
    ID                             : 20 (0x14)
    Menu ID                        : 1 (0x1)
    Format                         : AC-3
    Format/Info                    : Audio Coding 3
    Mode extension                 : CM (complete main)
    Format settings, Endianness    : Big
    Codec ID                       : 129
    Duration                       : 3mn 46s
    Bit rate mode                  : Constant
    Bit rate                       : 384 Kbps
    Channel count                  : 2 channels
    Channel positions              : Front: L R
    Sampling rate                  : 48.0 KHz
    Bit depth                      : 16 bits
    Compression mode               : Lossy
    Delay relative to video        : -659ms
    Stream size                    : 10.4 MiB (3%)
    Language                       : English
    
    Text #1
    ID                             : 17 (0x11)-CC1
    Menu ID                        : 1 (0x1)
    Format                         : EIA-608
    Muxing mode                    : A/53 / DTVCC Transport
    Muxing mode, more info         : Muxed in Video #1
    Duration                       : 3mn 46s
    Bit rate mode                  : Constant
    Stream size                    : 0.00 Byte (0%)
    
    Text #2
    ID                             : 17 (0x11)-1
    Menu ID                        : 1 (0x1)
    Format                         : EIA-708
    Muxing mode                    : A/53 / DTVCC Transport
    Muxing mode, more info         : Muxed in Video #1
    Duration                       : 3mn 46s
    Bit rate mode                  : Constant
    Stream size                    : 0.00 Byte (0%)



    Hidden Content:
    You must either reply or click 'Like' to see the hidden information contained here.

    Credit to CD-Man
     
    Last edited: Feb 21, 2016
  2. Loading...


  3. Red

    Red Well-Known Member

    Joined:
    Oct 3, 2013
    Messages:
    178
    Likes Received:
    575
    thanks a lot!:)
     
  4. KallumLavigne

    KallumLavigne Well-Known Member

    Joined:
    Nov 18, 2013
    Messages:
    677
    Likes Received:
    1,218
    thanks
     
  5. p4ramore

    p4ramore Member

    Joined:
    Feb 1, 2014
    Messages:
    45
    Likes Received:
    0
    thanks
     
  6. faizan

    faizan Member

    Joined:
    Mar 9, 2014
    Messages:
    44
    Likes Received:
    0
  7. Parce_18

    Parce_18 New Member

    Joined:
    Apr 1, 2014
    Messages:
    11
    Likes Received:
    0
    thanks
     
  8. 江雨燃双鱼

    江雨燃双鱼 Active Member

    Joined:
    Apr 5, 2014
    Messages:
    595
    Likes Received:
    36
  9. zemino

    zemino Member

    Joined:
    Apr 26, 2014
    Messages:
    119
    Likes Received:
    1
    thanks
     
  10. celio

    celio Member

    Joined:
    Oct 29, 2013
    Messages:
    965
    Likes Received:
    15
    thank you
     
  11. adam dark

    adam dark Video Music Lover <3 V . I . P.

    Joined:
    Dec 5, 2013
    Messages:
    2,549
    Likes Received:
    4,239
    you're welcome all guys! :D
     
  12. leiduancanhong

    leiduancanhong Member

    Joined:
    Jun 14, 2014
    Messages:
    112
    Likes Received:
    0
  13. adam dark

    adam dark Video Music Lover <3 V . I . P.

    Joined:
    Dec 5, 2013
    Messages:
    2,549
    Likes Received:
    4,239
    enjoy the video :D
     
  14. mvlmoraes

    mvlmoraes Well-Known Member Donor

    Joined:
    Nov 22, 2013
    Messages:
    1,566
    Likes Received:
    252
  15. adam dark

    adam dark Video Music Lover <3 V . I . P.

    Joined:
    Dec 5, 2013
    Messages:
    2,549
    Likes Received:
    4,239
    you're welcome!
     
  16. GBT22853

    GBT22853 New Member

    Joined:
    Aug 18, 2014
    Messages:
    5
    Likes Received:
    0
  17. adam dark

    adam dark Video Music Lover <3 V . I . P.

    Joined:
    Dec 5, 2013
    Messages:
    2,549
    Likes Received:
    4,239
    you're welcome!
     
  18. 777josem

    777josem Well-Known Member Uploader

    Joined:
    Sep 1, 2014
    Messages:
    2,923
    Likes Received:
    1,562
    thanks
     
  19. adam dark

    adam dark Video Music Lover <3 V . I . P.

    Joined:
    Dec 5, 2013
    Messages:
    2,549
    Likes Received:
    4,239
    you're welcome!
     
  20. abdi

    abdi Nicki and Ariana fan V . I . P. Uploader

    Joined:
    Sep 23, 2014
    Messages:
    2,114
    Likes Received:
    6,642
    thx
     
  21. dukongie

    dukongie Member

    Joined:
    May 3, 2014
    Messages:
    122
    Likes Received:
    4
    Thanks.