Taylor Swift - Wildest Dreams MTV Live HD 1080i HDMania

Discussion in 'MTV LIVE HD' started by Dfrazzer, Sep 25, 2015.

  1. Dfrazzer

    Dfrazzer Super Moderator Staff Member Super Moderator Capper V . I . P. Donor

    Joined:
    Nov 4, 2013
    Messages:
    3,896
    Likes Received:
    7,730
    [​IMG] [​IMG] [​IMG] [​IMG] [​IMG] [​IMG] [​IMG] [​IMG] [​IMG] [​IMG] [​IMG] [​IMG] [​IMG] [​IMG] [​IMG] [​IMG]

    Code:
    General
    ID : 1 (0x1)
    Complete name : C:\Users\Dfrazzer\Desktop\Taylor Swift - Wildest Dreams MTV Live HD 1080i HDMania.ts
    Format : MPEG-TS
    File size : 345 MiB
    Duration : 3mn 43s
    Overall bit rate mode : Variable
    Overall bit rate : 13.0 Mbps
    
    Video
    ID : 100 (0x64)
    Menu ID : 2 (0x2)
    Format : AVC
    Format/Info : Advanced Video Codec
    Format profile : [email protected]
    Format settings, CABAC : Yes
    Format settings, ReFrames : 2 frames
    Codec ID : 27
    Duration : 3mn 43s
    Bit rate mode : Variable
    Bit rate : 12.1 Mbps
    Maximum bit rate : 24.0 Mbps
    Width : 1 920 pixels
    Height : 1 080 pixels
    Display aspect ratio : 16:9
    Frame rate : 25.000 fps
    Color space : YUV
    Chroma subsampling : 4:2:0
    Bit depth : 8 bits
    Scan type : Interlaced
    Scan order : Top Field First
    Bits/(Pixel*Frame) : 0.234
    Stream size : 322 MiB (93%)
    Color primaries : BT.709
    Transfer characteristics : BT.709
    Matrix coefficients : BT.709
    
    Audio
    ID : 101 (0x65)
    Menu ID : 2 (0x2)
    Format : AAC
    Format/Info : Advanced Audio Codec
    Format version : Version 4
    Format profile : LC
    Muxing mode : ADTS
    Codec ID : 15
    Duration : 3mn 43s
    Bit rate mode : Variable
    Bit rate : 220 Kbps
    Channel(s) : 2 channels
    Channel positions : Front: L R
    Sampling rate : 48.0 KHz
    Compression mode : Lossy
    Delay relative to video : -80ms
    Stream size : 5.85 MiB (2%)
    
    Hidden Content:
    You must reply before you can see the hidden data contained here.
    Capped by me.
     
    Last edited: Sep 25, 2015
  2. Loading...


  3. DETOX

    DETOX Well-Known Member V . I . P. Uploader

    Joined:
    Feb 20, 2014
    Messages:
    2,757
    Likes Received:
    13,960
    Thank yous so much! :love:
     
  4. Dreamer

    Dreamer ♫ It's Britney Bitch ♫ Capper Uploader

    Joined:
    Dec 4, 2014
    Messages:
    2,219
    Likes Received:
    1,935
    Thank you so much :victory:
     
  5. Puchacz93

    Puchacz93 Well-Known Member

    Joined:
    Feb 4, 2015
    Messages:
    1,207
    Likes Received:
    659
    Thank you.
     
  6. Darkangel

    Darkangel Taylor Fan Staff Member Super Moderator Capper V . I . P. Donor

    Joined:
    Oct 7, 2013
    Messages:
    2,206
    Likes Received:
    17,692
    Thank you so much for Taylor :love:
     
  7. rhea

    rhea Well-Known Member

    Joined:
    Jan 6, 2014
    Messages:
    5,266
    Likes Received:
    253
    thank you so much! :)
     
  8. Joseph

    Joseph Active Member

    Joined:
    Dec 10, 2013
    Messages:
    729
    Likes Received:
    148
    thank you
     
  9. 777josem

    777josem Well-Known Member Uploader

    Joined:
    Sep 1, 2014
    Messages:
    2,426
    Likes Received:
    1,295
    :DThank you so much!
     
  10. Zatimi

    Zatimi Active Member

    Joined:
    Aug 27, 2014
    Messages:
    598
    Likes Received:
    61
    thanks a million
     
  11. talata

    talata Member

    Joined:
    Nov 14, 2013
    Messages:
    255
    Likes Received:
    5
    Thank u sooooo much
     
  12. Harry

    Harry Member

    Joined:
    Mar 4, 2014
    Messages:
    289
    Likes Received:
    3
    Thank you so much! :love::):D
     
  13. sebasswift

    sebasswift Member

    Joined:
    Oct 26, 2015
    Messages:
    117
    Likes Received:
    4
  14. BetaKsi

    BetaKsi Well-Known Member

    Joined:
    Oct 18, 2015
    Messages:
    705
    Likes Received:
    289
    Beautiful video)) Thank you))
     
  15. swifty1987

    swifty1987 Member

    Joined:
    Dec 19, 2015
    Messages:
    65
    Likes Received:
    2
  16. Patrons

    Patrons New Member

    Joined:
    Nov 7, 2015
    Messages:
    27
    Likes Received:
    0
    thanks
     
  17. nigg0re

    nigg0re New Member

    Joined:
    Feb 3, 2016
    Messages:
    18
    Likes Received:
    0
    thx
    Please enter a message with at least 5 characters.
     
  18. Blunder

    Blunder Member

    Joined:
    Mar 27, 2016
    Messages:
    331
    Likes Received:
    3
    thanks
     
  19. akon111

    akon111 Member

    Joined:
    Dec 29, 2015
    Messages:
    167
    Likes Received:
    0
    thanks
     
  20. Lucky

    Lucky Member

    Joined:
    Sep 26, 2016
    Messages:
    248
    Likes Received:
    11
    thanks
     
  21. Cdidi

    Cdidi Riri, Taylor & Madonna Fan V . I . P.

    Joined:
    Feb 21, 2016
    Messages:
    709
    Likes Received:
    909
    Thank you so much.