Taylor Swift - Wildest Dreams MTV Live HD 1080i HDMania

Discussion in 'MTV LIVE HD' started by Dfrazzer, Sep 25, 2015.

  1. Dfrazzer

    Dfrazzer Super Moderator Staff Member Super Moderator Capper V . I . P. Donor

    Joined:
    Nov 4, 2013
    Messages:
    4,338
    Likes Received:
    9,260
    [​IMG] [​IMG] [​IMG] [​IMG] [​IMG] [​IMG] [​IMG] [​IMG] [​IMG] [​IMG] [​IMG] [​IMG] [​IMG] [​IMG] [​IMG] [​IMG]

    Code:
    General
    ID : 1 (0x1)
    Complete name : C:\Users\Dfrazzer\Desktop\Taylor Swift - Wildest Dreams MTV Live HD 1080i HDMania.ts
    Format : MPEG-TS
    File size : 345 MiB
    Duration : 3mn 43s
    Overall bit rate mode : Variable
    Overall bit rate : 13.0 Mbps
    
    Video
    ID : 100 (0x64)
    Menu ID : 2 (0x2)
    Format : AVC
    Format/Info : Advanced Video Codec
    Format profile : High@L4.0
    Format settings, CABAC : Yes
    Format settings, ReFrames : 2 frames
    Codec ID : 27
    Duration : 3mn 43s
    Bit rate mode : Variable
    Bit rate : 12.1 Mbps
    Maximum bit rate : 24.0 Mbps
    Width : 1 920 pixels
    Height : 1 080 pixels
    Display aspect ratio : 16:9
    Frame rate : 25.000 fps
    Color space : YUV
    Chroma subsampling : 4:2:0
    Bit depth : 8 bits
    Scan type : Interlaced
    Scan order : Top Field First
    Bits/(Pixel*Frame) : 0.234
    Stream size : 322 MiB (93%)
    Color primaries : BT.709
    Transfer characteristics : BT.709
    Matrix coefficients : BT.709
    
    Audio
    ID : 101 (0x65)
    Menu ID : 2 (0x2)
    Format : AAC
    Format/Info : Advanced Audio Codec
    Format version : Version 4
    Format profile : LC
    Muxing mode : ADTS
    Codec ID : 15
    Duration : 3mn 43s
    Bit rate mode : Variable
    Bit rate : 220 Kbps
    Channel(s) : 2 channels
    Channel positions : Front: L R
    Sampling rate : 48.0 KHz
    Compression mode : Lossy
    Delay relative to video : -80ms
    Stream size : 5.85 MiB (2%)
    
    Hidden Content:
    You must reply before you can see the hidden data contained here.
    Capped by me.
     
    Last edited: Sep 25, 2015
  2. Loading...


  3. DETOX

    DETOX K-POP fan ♡ V . I . P. Uploader

    Joined:
    Feb 20, 2014
    Messages:
    3,000
    Likes Received:
    20,210
    Thank yous so much! :love:
     
  4. Dreamer

    Dreamer Lana Del Rey ♥ Capper V . I . P. Uploader

    Joined:
    Dec 4, 2014
    Messages:
    2,689
    Likes Received:
    3,413
    Thank you so much :victory:
     
  5. Puchacz93

    Puchacz93 Well-Known Member

    Joined:
    Feb 4, 2015
    Messages:
    1,206
    Likes Received:
    715
    Thank you.
     
  6. Darkangel

    Darkangel Taylor Fan Staff Member Super Moderator Capper V . I . P. Donor

    Joined:
    Oct 7, 2013
    Messages:
    2,367
    Likes Received:
    20,218
    Thank you so much for Taylor :love:
     
  7. rhea

    rhea Well-Known Member

    Joined:
    Jan 6, 2014
    Messages:
    6,237
    Likes Received:
    524
    thank you so much! :)
     
  8. Joseph

    Joseph Active Member

    Joined:
    Dec 10, 2013
    Messages:
    744
    Likes Received:
    168
    thank you
     
  9. 777josem

    777josem ProRes 1080p LPCM V . I . P. Uploader

    Joined:
    Sep 1, 2014
    Messages:
    3,359
    Likes Received:
    2,488
    :DThank you so much!
     
  10. Zatimi

    Zatimi Active Member

    Joined:
    Aug 27, 2014
    Messages:
    703
    Likes Received:
    118
    thanks a million
     
  11. talata

    talata Member

    Joined:
    Nov 14, 2013
    Messages:
    262
    Likes Received:
    6
    Thank u sooooo much
     
  12. Harry

    Harry Member

    Joined:
    Mar 4, 2014
    Messages:
    316
    Likes Received:
    4
    Thank you so much! :love::):D
     
  13. sebasswift

    sebasswift Member

    Joined:
    Oct 26, 2015
    Messages:
    117
    Likes Received:
    4
  14. BetaKsi

    BetaKsi Well-Known Member

    Joined:
    Oct 18, 2015
    Messages:
    1,006
    Likes Received:
    374
    Beautiful video)) Thank you))
     
  15. swifty1987

    swifty1987 Member

    Joined:
    Dec 19, 2015
    Messages:
    65
    Likes Received:
    2
  16. Patrons

    Patrons New Member

    Joined:
    Nov 7, 2015
    Messages:
    27
    Likes Received:
    0
    thanks
     
  17. nigg0re

    nigg0re New Member

    Joined:
    Feb 3, 2016
    Messages:
    18
    Likes Received:
    0
    thx
    Please enter a message with at least 5 characters.
     
  18. Blunder

    Blunder Member

    Joined:
    Mar 27, 2016
    Messages:
    364
    Likes Received:
    4
    thanks
     
  19. akon111

    akon111 Member

    Joined:
    Dec 29, 2015
    Messages:
    187
    Likes Received:
    1
    thanks
     
  20. Lucky

    Lucky Member

    Joined:
    Sep 26, 2016
    Messages:
    277
    Likes Received:
    21
    thanks
     
  21. miyara

    miyara xoxo bonbon V . I . P. Uploader

    Joined:
    Feb 21, 2016
    Messages:
    1,036
    Likes Received:
    2,340
    Thank you so much.