Taylor Swift - Wildest Dreams (BD-1080p-AOCTESTRu-Polly32) DD5.1

Discussion in 'BLU-RAY & BD RIP' started by miyara, Dec 26, 2016.

  1. miyara

    miyara Miya Foldenstein V . I . P. Uploader

    Joined:
    Feb 21, 2016
    Messages:
    1,036
    Likes Received:
    2,356
    [​IMG]
    Code:
    Format                           : MPEG-TS
    File size                        : 477 MiB
    Duration                         : 3mn 35s
    Overall bit rate                 : 18.5 Mbps
    Maximum Overall bit rate         : 35.5 Mbps
    
    Video
    ID                               : 4113 (0x1011)
    Menu ID                          : 1 (0x1)
    Format                           : AVC
    Format/Info                      : Advanced Video Codec
    Format profile                   : [email protected]
    Format settings, CABAC           : Yes
    Format settings, ReFrames        : 4 frames
    Codec ID                         : 27
    Duration                         : 3mn 34s
    Bit rate mode                    : Variable
    Bit rate                         : 17.2 Mbps
    Maximum bit rate                 : 40.0 Mbps
    Width                            : 1 920 pixels
    Height                           : 808 pixels
    Display aspect ratio             : 2.35:1
    Frame rate                       : 60.000 fps
    Color space                      : YUV
    Chroma subsampling               : 4:2:0
    Bit depth                        : 8 bits
    Scan type                        : Progressive
    Bits/(Pixel*Frame)               : 0.185
    Stream size                      : 439 MiB (92%)
    
    Audio
    ID                               : 4352 (0x1100)
    Menu ID                          : 1 (0x1)
    Format                           : AC-3
    Format/Info                      : Audio Coding 3
    Mode extension                   : CM (complete main)
    Codec ID                         : 129
    Duration                         : 3mn 35s
    Bit rate mode                    : Constant
    Bit rate                         : 448 Kbps
    Channel(s)                       : 6 channels
    Channel positions                : Front: L C R, Side: L R, LFE
    Sampling rate                    : 48.0 KHz
    Bit depth                        : 16 bits
    Compression mode                 : Lossy
    Delay relative to video          : -67ms
    Stream size                      : 11.5 MiB (2%)
    Language                         : Northern Sami
    Hidden Content:
    You must either reply or click 'Like' to see the hidden information contained here.
     
    Last edited: Feb 11, 2017
    memo445, hungduyng, hd1026 and 52 others like this.
  2. Loading...


  3. Hen2302

    Hen2302 Member

    Joined:
    Feb 4, 2014
    Messages:
    394
    Likes Received:
    7
    muchas gracias
     
  4. theclimb

    theclimb Active Member

    Joined:
    Dec 16, 2014
    Messages:
    633
    Likes Received:
    116
    Thanks
     
    Last edited by a moderator: Jan 5, 2017
  5. Akbar Khalid

    Akbar Khalid Member

    Joined:
    Aug 31, 2016
    Messages:
    204
    Likes Received:
    12
    Love this track! Thank you :)
     
  6. roytaylorswiftie

    roytaylorswiftie Member

    Joined:
    Oct 22, 2016
    Messages:
    70
    Likes Received:
    2
  7. seesagun

    seesagun Member

    Joined:
    Mar 22, 2014
    Messages:
    269
    Likes Received:
    2
    thank you
     
  8. miyara

    miyara Miya Foldenstein V . I . P. Uploader

    Joined:
    Feb 21, 2016
    Messages:
    1,036
    Likes Received:
    2,356
    Link up.
     
  9. miyara

    miyara Miya Foldenstein V . I . P. Uploader

    Joined:
    Feb 21, 2016
    Messages:
    1,036
    Likes Received:
    2,356
    Sorry, link is on again.
     
  10. rkn9

    rkn9 Well-Known Member

    Joined:
    Jan 9, 2016
    Messages:
    2,705
    Likes Received:
    36
    oleeeeeeeeee
     
  11. Gizmo234

    Gizmo234 Member

    Joined:
    Oct 21, 2015
    Messages:
    49
    Likes Received:
    1
    Thanks
     
  12. kana3245

    kana3245 Member

    Joined:
    Aug 15, 2016
    Messages:
    318
    Likes Received:
    11
    thank you
     
  13. quake2

    quake2 Active Member

    Joined:
    Oct 11, 2014
    Messages:
    950
    Likes Received:
    56
    thanks
     
  14. Tadeulife

    Tadeulife Member

    Joined:
    Jan 21, 2016
    Messages:
    507
    Likes Received:
    14
  15. Darkangel

    Darkangel Taylor Fan Staff Member Super Moderator Capper V . I . P. Donor

    Joined:
    Oct 7, 2013
    Messages:
    2,372
    Likes Received:
    20,251
    Thanks so much! :)
     
  16. candyman81

    candyman81 Member

    Joined:
    Jan 1, 2017
    Messages:
    79
    Likes Received:
    5
    thank you
     
  17. Harry

    Harry Member

    Joined:
    Mar 4, 2014
    Messages:
    316
    Likes Received:
    4
    Thank you so much! :) <3
     
  18. kbabrrrr

    kbabrrrr New Member

    Joined:
    May 30, 2015
    Messages:
    25
    Likes Received:
    1
  19. Escalade1080p

    Escalade1080p Member

    Joined:
    Nov 20, 2013
    Messages:
    509
    Likes Received:
    14
    Thank you!
     
  20. Fernando

    Fernando Member

    Joined:
    Jul 22, 2014
    Messages:
    614
    Likes Received:
    7
  21. alifaxa

    alifaxa Member

    Joined:
    Oct 21, 2015
    Messages:
    359
    Likes Received:
    5
    taankks