Taylor Swift - Wildest Dreams (BD-1080p-AOCTESTRu-Polly32) DD5.1

Discussion in 'BLU-RAY & BD RIP' started by Pussy, Dec 26, 2016.

  1. Pussy

    Pussy pussyHD V . I . P.

    Joined:
    Feb 21, 2016
    Messages:
    805
    Likes Received:
    1,298
    [​IMG]
    Code:
    Format                           : MPEG-TS
    File size                        : 477 MiB
    Duration                         : 3mn 35s
    Overall bit rate                 : 18.5 Mbps
    Maximum Overall bit rate         : 35.5 Mbps
    
    Video
    ID                               : 4113 (0x1011)
    Menu ID                          : 1 (0x1)
    Format                           : AVC
    Format/Info                      : Advanced Video Codec
    Format profile                   : [email protected]
    Format settings, CABAC           : Yes
    Format settings, ReFrames        : 4 frames
    Codec ID                         : 27
    Duration                         : 3mn 34s
    Bit rate mode                    : Variable
    Bit rate                         : 17.2 Mbps
    Maximum bit rate                 : 40.0 Mbps
    Width                            : 1 920 pixels
    Height                           : 808 pixels
    Display aspect ratio             : 2.35:1
    Frame rate                       : 60.000 fps
    Color space                      : YUV
    Chroma subsampling               : 4:2:0
    Bit depth                        : 8 bits
    Scan type                        : Progressive
    Bits/(Pixel*Frame)               : 0.185
    Stream size                      : 439 MiB (92%)
    
    Audio
    ID                               : 4352 (0x1100)
    Menu ID                          : 1 (0x1)
    Format                           : AC-3
    Format/Info                      : Audio Coding 3
    Mode extension                   : CM (complete main)
    Codec ID                         : 129
    Duration                         : 3mn 35s
    Bit rate mode                    : Constant
    Bit rate                         : 448 Kbps
    Channel(s)                       : 6 channels
    Channel positions                : Front: L C R, Side: L R, LFE
    Sampling rate                    : 48.0 KHz
    Bit depth                        : 16 bits
    Compression mode                 : Lossy
    Delay relative to video          : -67ms
    Stream size                      : 11.5 MiB (2%)
    Language                         : Northern Sami
    Hidden Content:
    You must either reply or click 'Like' to see the hidden information contained here.
     
    Last edited: Feb 11, 2017
  2. Loading...


  3. Hen2302

    Hen2302 Member

    Joined:
    Feb 4, 2014
    Messages:
    393
    Likes Received:
    7
    muchas gracias
     
  4. theclimb

    theclimb Active Member

    Joined:
    Dec 16, 2014
    Messages:
    610
    Likes Received:
    111
    Thanks
     
    Last edited by a moderator: Jan 5, 2017
  5. Akbar Khalid

    Akbar Khalid Member

    Joined:
    Aug 31, 2016
    Messages:
    163
    Likes Received:
    10
    Love this track! Thank you :)
     
  6. roytaylorswiftie

    roytaylorswiftie Member

    Joined:
    Oct 22, 2016
    Messages:
    57
    Likes Received:
    2
  7. seesagun

    seesagun Member

    Joined:
    Mar 22, 2014
    Messages:
    238
    Likes Received:
    1
    thank you
     
  8. Pussy

    Pussy pussyHD V . I . P.

    Joined:
    Feb 21, 2016
    Messages:
    805
    Likes Received:
    1,298
    Link up.
     
  9. Pussy

    Pussy pussyHD V . I . P.

    Joined:
    Feb 21, 2016
    Messages:
    805
    Likes Received:
    1,298
    Sorry, link is on again.
     
  10. rkn9

    rkn9 Well-Known Member

    Joined:
    Jan 9, 2016
    Messages:
    2,237
    Likes Received:
    33
    oleeeeeeeeee
     
  11. Gizmo234

    Gizmo234 Member

    Joined:
    Oct 21, 2015
    Messages:
    42
    Likes Received:
    0
    Thanks
     
  12. kana3245

    kana3245 Member

    Joined:
    Aug 15, 2016
    Messages:
    238
    Likes Received:
    5
    thank you
     
  13. quake2

    quake2 Active Member

    Joined:
    Oct 11, 2014
    Messages:
    869
    Likes Received:
    35
    thanks
     
  14. Tadeulife

    Tadeulife Member

    Joined:
    Jan 21, 2016
    Messages:
    360
    Likes Received:
    6
  15. Darkangel

    Darkangel Taylor Fan Staff Member Super Moderator Capper V . I . P. Donor

    Joined:
    Oct 7, 2013
    Messages:
    2,232
    Likes Received:
    18,283
    Thanks so much! :)
     
  16. candyman81

    candyman81 Member

    Joined:
    Jan 1, 2017
    Messages:
    69
    Likes Received:
    1
    thank you
     
  17. Harry

    Harry Member

    Joined:
    Mar 4, 2014
    Messages:
    291
    Likes Received:
    3
    Thank you so much! :) <3
     
  18. kbabrrrr

    kbabrrrr New Member

    Joined:
    May 30, 2015
    Messages:
    16
    Likes Received:
    0
  19. Escalade1080p

    Escalade1080p Member

    Joined:
    Nov 20, 2013
    Messages:
    480
    Likes Received:
    13
    Thank you!
     
  20. Fernando

    Fernando Member

    Joined:
    Jul 22, 2014
    Messages:
    531
    Likes Received:
    3
  21. alifaxa

    alifaxa Member

    Joined:
    Oct 21, 2015
    Messages:
    351
    Likes Received:
    4
    taankks