Taylor Swift - Wildest Dreams (AAC-WebMaster-720p-Abdi)

Discussion in 'WEB MASTER' started by abdi, Nov 4, 2016.

  1. abdi

    abdi Nicki and Ariana fan V . I . P. Uploader

    Joined:
    Sep 23, 2014
    Messages:
    1,870
    Likes Received:
    3,738
    Taylor Swift - Wildest Dreams (AAC-WebMaster-720p-Abdi)
    General
    Complete name : Taylor Swift - Wildest Dreams (AAC-WebMaster-720p-Abdi).mov
    Format : MPEG-4
    Format profile : QuickTime
    Codec ID : qt
    File size : 126 MiB
    Duration : 3mn 54s
    Overall bit rate mode : Variable
    Overall bit rate : 4 489 Kbps
    Encoded date : UTC 2015-08-31 19:27:56
    Tagged date : UTC 2015-08-31 19:27:58
    Writing library : Apple QuickTime

    Video
    ID : 2
    Format : AVC
    Format/Info : Advanced Video Codec
    Format profile : [email protected]
    Format settings, CABAC : No
    Format settings, ReFrames : 2 frames
    Format settings, GOP : M=2, N=72
    Codec ID : avc1
    Codec ID/Info : Advanced Video Coding
    Duration : 3mn 54s
    Bit rate mode : Variable
    Bit rate : 4 367 Kbps
    Maximum bit rate : 6 152 Kbps
    Width : 1 280 pixels
    Height : 720 pixels
    Display aspect ratio : 16:9
    Frame rate mode : Variable
    Frame rate : 23.976 fps
    Minimum frame rate : 17.857 fps
    Maximum frame rate : 24.390 fps
    Color space : YUV
    Chroma subsampling : 4:2:0
    Bit depth : 8 bits
    Scan type : Progressive
    Bits/(Pixel*Frame) : 0.198
    Stream size : 122 MiB (97%)
    Language : English
    Encoded date : UTC 2015-08-31 19:27:50
    Tagged date : UTC 2015-08-31 19:27:58
    Color range : Limited
    Color primaries : BT.709
    Transfer characteristics : BT.709
    Matrix coefficients : BT.709

    Audio
    ID : 1
    Format : AAC
    Format/Info : Advanced Audio Codec
    Format profile : LC
    Codec ID : 40
    Duration : 3mn 54s
    Bit rate mode : Constant
    Bit rate : 117 Kbps
    Nominal bit rate : 128 Kbps
    Channel(s) : 2 channels
    Channel positions : Front: L R
    Sampling rate : 44.1 KHz
    Compression mode : Lossy
    Stream size : 3.27 MiB (3%)
    Language : English
    Encoded date : UTC 2015-08-31 19:27:49
    Tagged date : UTC 2015-08-31 19:27:58
    [​IMG]
    [​IMG]
    Hidden Content:
    You must reply before you can see the hidden data contained here.
     
  2. Loading...


  3. mario

    mario Well-Known Member

    Joined:
    Oct 7, 2013
    Messages:
    460
    Likes Received:
    857
    thank you
     
  4. vogor

    vogor Member

    Joined:
    Oct 5, 2016
    Messages:
    110
    Likes Received:
    0
    Super
     
  5. Akbar Khalid

    Akbar Khalid Member

    Joined:
    Aug 31, 2016
    Messages:
    161
    Likes Received:
    9
    Thank you :)
     
  6. slill

    slill Member

    Joined:
    Jul 25, 2014
    Messages:
    929
    Likes Received:
    10
    thanks
     
  7. Pussy

    Pussy The Stoner MF of Love V . I . P.

    Joined:
    Feb 21, 2016
    Messages:
    788
    Likes Received:
    1,149
    Thanks.
     
  8. John Dee

    John Dee Member

    Joined:
    Jun 27, 2015
    Messages:
    80
    Likes Received:
    2
    thanks
     
  9. Tadeulife

    Tadeulife Member

    Joined:
    Jan 21, 2016
    Messages:
    357
    Likes Received:
    6
  10. xavier777

    xavier777 Active Member

    Joined:
    Aug 29, 2016
    Messages:
    367
    Likes Received:
    28
    Thanks