CC Taylor Swift - We Are Never Ever Getting Back Together (MUCHHD-1080i-AmazonBoy) [CC]

Discussion in 'MUCH HD' started by vans, Jan 11, 2014.

  1. vans

    vans Well-Known Member

    Joined:
    Dec 14, 2013
    Messages:
    183
    Likes Received:
    899

    [​IMG]


    General
    ID : 1 (0x1)
    Complete name : Taylor Swift - We Are Never Ever Getting Back Together (MUCHHD-1080i-AmazonBoy).ts
    Format : MPEG-TS
    File size : 331 MiB
    Duration : 3mn 23s
    Overall bit rate mode : Variable
    Overall bit rate : 13.7 Mbps
    Maximum Overall bit rate : 35.5 Mbps
    Law rating : E

    Video
    ID : 4113 (0x1011)
    Menu ID : 1 (0x1)
    Format : MPEG Video
    Format version : Version 2
    Format profile : Main@High
    Format settings, BVOP : Yes
    Format settings, Matrix : Custom
    Format settings, GOP : Variable
    Codec ID : 2
    Duration : 3mn 23s
    Bit rate mode : Variable
    Bit rate : 12.6 Mbps
    Maximum bit rate : 25.0 Mbps
    Width : 1 920 pixels
    Height : 1 080 pixels
    Display aspect ratio : 16:9
    Frame rate : 29.970 fps
    Color space : YUV
    Chroma subsampling : 4:2:0
    Bit depth : 8 bits
    Compression mode : Lossy
    Bits/(Pixel*Frame) : 0.203
    Time code of first frame : 00:00:00;00
    Time code source : Group of pictures header
    Stream size : 306 MiB (92%)
    Writing library : (c) 1998-2011 Womble Multimedia, Inc. / MPEG Video Wizard DVD 5.0.1.100 (03/2011) / Dec 19 2011

    Audio
    ID : 4352 (0x1100)
    Menu ID : 1 (0x1)
    Format : AC-3
    Format/Info : Audio Coding 3
    Mode extension : CM (complete main)
    Format settings, Endianness : Big
    Codec ID : 129
    Duration : 3mn 23s
    Bit rate mode : Constant
    Bit rate : 384 Kbps
    Channel(s) : 6 channels
    Channel positions : Front: L C R, Side: L R, LFE
    Sampling rate : 48.0 KHz
    Bit depth : 16 bits
    Compression mode : Lossy
    Stream size : 9.29 MiB (3%)

    Hidden Content:
    You must reply before you can see the hidden data contained here.
     
    Last edited by a moderator: Oct 22, 2015
  2. Loading...


  3. KallumLavigne

    KallumLavigne Well-Known Member

    Joined:
    Nov 18, 2013
    Messages:
    675
    Likes Received:
    1,157
    thanks :D
     
  4. Escalade1080p

    Escalade1080p Member

    Joined:
    Nov 20, 2013
    Messages:
    465
    Likes Received:
    11
    Thank you so so much! I was still missing that.
     
  5. ePhysician

    ePhysician Active Member

    Joined:
    Jan 12, 2014
    Messages:
    455
    Likes Received:
    120
  6. poorknight

    poorknight Member

    Joined:
    Jan 9, 2014
    Messages:
    86
    Likes Received:
    1
    Thanks.
     
  7. prodan

    prodan New Member

    Joined:
    Jan 25, 2014
    Messages:
    4
    Likes Received:
    0
    Gracias amigo
     
  8. cero

    cero Member

    Joined:
    Nov 1, 2013
    Messages:
    82
    Likes Received:
    0
    good thxs
     
  9. TK22

    TK22 Member

    Joined:
    Dec 27, 2013
    Messages:
    39
    Likes Received:
    1
    Thanks
     
  10. Joseph

    Joseph Active Member

    Joined:
    Dec 10, 2013
    Messages:
    729
    Likes Received:
    147
    AHHHHHH! It's re-uploaded! thank you sooooo much!
     
  11. p4ramore

    p4ramore Member

    Joined:
    Feb 1, 2014
    Messages:
    45
    Likes Received:
    0
  12. riv

    riv Member

    Joined:
    Feb 24, 2014
    Messages:
    60
    Likes Received:
    0
  13. clsx52233

    clsx52233 New Member

    Joined:
    Mar 11, 2014
    Messages:
    1
    Likes Received:
    0
  14. grepitu

    grepitu Member

    Joined:
    Feb 1, 2014
    Messages:
    44
    Likes Received:
    6
    Thanks!
     
  15. BoogyWoogy

    BoogyWoogy Well-Known Member Donor

    Joined:
    Jan 9, 2014
    Messages:
    1,178
    Likes Received:
    5,593
    Thanks !
     
  16. onehandfeel

    onehandfeel Member

    Joined:
    Dec 16, 2013
    Messages:
    178
    Likes Received:
    9
  17. ron

    ron Well-Known Member

    Joined:
    Apr 4, 2014
    Messages:
    350
    Likes Received:
    253
    thxs
     
  18. MetaLeaFX

    MetaLeaFX Member

    Joined:
    Jan 16, 2014
    Messages:
    118
    Likes Received:
    1
  19. yporqueno

    yporqueno Member

    Joined:
    Feb 12, 2014
    Messages:
    210
    Likes Received:
    14
    Thanks!
     
  20. ialmostdo

    ialmostdo Member

    Joined:
    Feb 21, 2014
    Messages:
    48
    Likes Received:
    0
  21. Flaxdevil

    Flaxdevil Member

    Joined:
    May 25, 2014
    Messages:
    206
    Likes Received:
    6
    Thanks!