Taylor Swift - We Are Never Ever Getting Back Together (Lyric Video) [M-ON! HD 1080i]

Discussion in 'M-ON!' started by Joseph, Feb 18, 2015.

  1. Joseph

    Joseph Active Member

    Joined:
    Dec 10, 2013
    Messages:
    744
    Likes Received:
    168
    [​IMG]
    [​IMG]
    [​IMG]

    General
    ID : 16389 (0x4005)
    Complete name : C:\JOSEPH's Files\HD MV's (1080i)\Taylor Swift\[M-ON! HD] Taylor Swift - We Are Never Ever Getting Back Together (Lyric Video).ts
    Format : MPEG-TS
    File size : 124 MiB
    Duration : 3mn 13s
    Overall bit rate mode : Variable
    Overall bit rate : 5 400 Kbps

    Video
    ID : 4099 (0x1003)
    Menu ID : 33409 (0x8281)
    Format : AVC
    Format/Info : Advanced Video Codec
    Format profile : [email protected]
    Format settings, CABAC : Yes
    Format settings, ReFrames : 4 frames
    Codec ID : 27
    Duration : 3mn 13s
    Bit rate mode : Variable
    Bit rate : 4 988 Kbps
    Maximum bit rate : 15.0 Mbps
    Width : 1 440 pixels
    Height : 1 080 pixels
    Display aspect ratio : 16:9
    Frame rate : 29.970 fps
    Standard : Component
    Color space : YUV
    Chroma subsampling : 4:2:0
    Bit depth : 8 bits
    Scan type : MBAFF
    Bits/(Pixel*Frame) : 0.107
    Stream size : 115 MiB (92%)
    Color primaries : BT.709
    Transfer characteristics : BT.709
    Matrix coefficients : BT.709

    Audio
    ID : 4163 (0x1043)
    Menu ID : 33409 (0x8281)
    Format : AAC
    Format/Info : Advanced Audio Codec
    Format version : Version 2
    Format profile : LC
    Muxing mode : ADTS
    Codec ID : 15
    Duration : 3mn 13s
    Bit rate mode : Variable
    Bit rate : 144 Kbps
    Channel count : 2 channels
    Channel positions : Front: L R
    Sampling rate : 48.0 KHz
    Compression mode : Lossy
    Delay relative to video : -522ms
    Stream size : 3.32 MiB (3%)

    Hidden Content:
    You must either reply or click 'Like' to see the hidden information contained here.
     
  2. Loading...


  3. rhea

    rhea Well-Known Member

    Joined:
    Jan 6, 2014
    Messages:
    6,213
    Likes Received:
    516
    thanks a lot
     
  4. DennisAvA

    DennisAvA Member

    Joined:
    Nov 15, 2014
    Messages:
    31
    Likes Received:
    1
    Thank you!
     
  5. joelh20101

    joelh20101 Well-Known Member

    Joined:
    Nov 4, 2013
    Messages:
    1,460
    Likes Received:
    143
    thanks for this