HDTV Taylor Swift - The Road To Reputation [28 Sept 2018 10HD Australia]_azamusic

Discussion in 'Documentaries' started by KaiKawaii, Sep 29, 2018.

  1. bruno_aco

    bruno_aco Member

    Joined:
    Nov 22, 2013
    Messages:
    106
    Likes Received:
    4
    thank you
     
  2. thinkingdualipa

    thinkingdualipa Active Member

    Joined:
    Jun 26, 2017
    Messages:
    428
    Likes Received:
    29
  3. thinkingdualipa

    thinkingdualipa Active Member

    Joined:
    Jun 26, 2017
    Messages:
    428
    Likes Received:
    29
  4. loris81

    loris81 Member

    Joined:
    Jun 21, 2016
    Messages:
    256
    Likes Received:
    3
  5. o2stk1

    o2stk1 New Member

    Joined:
    Oct 14, 2018
    Messages:
    6
    Likes Received:
    0
    thanks
     
  6. pinky

    pinky Well-Known Member

    Joined:
    Jun 27, 2015
    Messages:
    1,580
    Likes Received:
    55
    thank you :)
     
  7. GOT23

    GOT23 Member

    Joined:
    Sep 13, 2018
    Messages:
    162
    Likes Received:
    3
    Thanks!
     
  8. fernando85

    fernando85 Member

    Joined:
    Mar 29, 2018
    Messages:
    78
    Likes Received:
    11
    [​IMG] [​IMG] [​IMG] [​IMG] [​IMG]
    Code:
    General
    ID                             : 1 (0x1)
    Complete name                  : D:\neue downloads\Taylor Swift - The Road To Reputation [28 Sept 2018 10HD Australia]_azamusic.ts
    Format                         : MPEG-TS
    File size                      : 1.77 GiB
    Duration                       : 42 min 30 s
    Overall bit rate mode          : Variable
    Overall bit rate               : 5 947 kb/s
    
    Video
    ID                             : 511 (0x1FF)
    Menu ID                        : 1604 (0x644)
    Format                         : AVC
    Format/Info                    : Advanced Video Codec
    Format profile                 : High@L4
    Format settings, CABAC         : Yes
    Format settings, RefFrames     : 4 frames
    Format settings, GOP           : M=4, N=24
    Codec ID                       : 27
    Duration                       : 42 min 30 s
    Bit rate                       : 5 200 kb/s
    Width                          : 1 920 pixels
    Height                         : 1 080 pixels
    Display aspect ratio           : 16:9
    Frame rate                     : 25.000 FPS
    Color space                    : YUV
    Chroma subsampling             : 4:2:0
    Bit depth                      : 8 bits
    Scan type                      : Interlaced
    Scan type, store method        : Separated fields
    Scan order                     : Top Field First
    Bits/(Pixel*Frame)             : 0.100
    Stream size                    : 1.54 GiB (87%)
    Color range                    : Limited
    Color primaries                : BT.709
    Transfer characteristics       : BT.709
    Matrix coefficients            : BT.709
    
    Audio
    ID                             : 649 (0x289)
    Menu ID                        : 1604 (0x644)
    Format                         : AC-3
    Format/Info                    : Audio Coding 3
    Format settings, Endianness    : Big
    Codec ID                       : 6
    Duration                       : 42 min 30 s
    Bit rate mode                  : Constant
    Bit rate                       : 448 kb/s
    Channel(s)                     : 6 channels
    Channel positions              : Front: L C R, Side: L R, LFE
    Sampling rate                  : 48.0 kHz
    Frame rate                     : 31.250 FPS (1536 SPF)
    Bit depth                      : 16 bits
    Compression mode               : Lossy
    Stream size                    : 136 MiB (8%)
    Language                       : English
    Service kind                   : Complete Main
    
    Text
    ID                             : 575 (0x23F)-801
    Menu ID                        : 1604 (0x644)
    Format                         : Teletext Subtitle
    Language                       : English
    Credits to the amazing @azamusic :love:

    ***Hidden content cannot be quoted.***[/QUOTE]
     
  9. hanshermann

    hanshermann Well-Known Member Uploader

    Joined:
    Aug 24, 2016
    Messages:
    7,241
    Likes Received:
    12,533
    wahts taht
     
  10. elnardgandalf

    elnardgandalf Member

    Joined:
    May 23, 2017
    Messages:
    109
    Likes Received:
    0
  11. muskeetior

    muskeetior New Member

    Joined:
    Oct 18, 2018
    Messages:
    24
    Likes Received:
    0
  12. Pascal French

    Pascal French Member

    Joined:
    Aug 11, 2014
    Messages:
    66
    Likes Received:
    2
    what is this?
     
  13. masuood12

    masuood12 Member

    Joined:
    Aug 1, 2016
    Messages:
    348
    Likes Received:
    6
    reply
     
  14. djfkfkfkfkfkfkkfk

    djfkfkfkfkfkfkkfk New Member

    Joined:
    Oct 27, 2018
    Messages:
    1
    Likes Received:
    0
  15. bigquinn

    bigquinn Member

    Joined:
    Oct 25, 2018
    Messages:
    160
    Likes Received:
    3
    thank you
     
  16. cyb7923

    cyb7923 New Member

    Joined:
    Oct 29, 2018
    Messages:
    9
    Likes Received:
    0
    Thank you
     
  17. trinhhoaihuongthao

    trinhhoaihuongthao Member

    Joined:
    May 16, 2015
    Messages:
    61
    Likes Received:
    1
    thank you so much
     
  18. Revivalsober

    Revivalsober New Member

    Joined:
    Oct 30, 2018
    Messages:
    11
    Likes Received:
    0
    Thank you
     
  19. mvlmoraes

    mvlmoraes Well-Known Member Donor

    Joined:
    Nov 22, 2013
    Messages:
    3,169
    Likes Received:
    421
    thanks
     
  20. Nicolas.rodriguezswift

    Nicolas.rodriguezswift Member

    Joined:
    Mar 24, 2017
    Messages:
    121
    Likes Received:
    1