WEB-RiP Taylor Swift - The Road To Reputation (2018) Documentary [1080p WEB-RIP]

Discussion in 'Documentaries' started by clublandtiger, Sep 28, 2018.

  1. clublandtiger

    clublandtiger Miraculous Ladybug Capper Uploader Donor

    Joined:
    Apr 4, 2016
    Messages:
    509
    Likes Received:
    3,184
    [​IMG]
    [​IMG]
    [​IMG]


    Complete name : J:\Taylor Swift - Road To Reputation- 2018.ts
    Format : MPEG-TS
    File size : 1.97 GiB
    Duration : 42 min 33 s
    Overall bit rate mode : Variable
    Overall bit rate : 6 633 kb/s
    Maximum Overall bit rate : 35.5 Mb/s
    Video
    ID : 4113 (0x1011)
    Menu ID : 1 (0x1)
    Format : AVC
    Format/Info : Advanced Video Codec
    Format profile : Baseline@L3
    Format settings : 1 Ref Frames
    Format settings, CABAC : No
    Format settings, RefFrames : 1 frame
    Codec ID : 27
    Duration : 42 min 33 s
    Bit rate mode : Variable
    Bit rate : 5 982 kb/s
    Maximum bit rate : 40.0 Mb/s
    Width : 1 920 pixels
    Height : 1 080 pixels
    Display aspect ratio : 16:9
    Frame rate : 25.000 FPS
    Color space : YUV
    Chroma subsampling : 4:2:0
    Bit depth : 8 bits
    Scan type : Progressive
    Bits/(Pixel*Frame) : 0.115
    Stream size : 1.78 GiB (90%)
    Audio
    ID : 4352 (0x1100)
    Menu ID : 1 (0x1)
    Format : AC-3
    Format/Info : Audio Coding 3
    Codec ID : 129
    Duration : 42 min 33 s
    Bit rate mode : Constant
    Bit rate : 320 kb/s
    Channel(s) : 2 channels
    Channel positions : Front: L R
    Sampling rate : 44.1 kHz
    Frame rate : 28.711 FPS (1536 SPF)
    Bit depth : 16 bits
    Compression mode : Lossy
    Stream size : 97.4 MiB (5%)
    Service kind : Complete Main



    Hidden Content:
    You must reply before you can see the hidden data contained here.
     
    Ana Ribeiro, nkt, pardi and 3 others like this.
  2. Loading...


  3. KaiKawaii

    KaiKawaii Well-Known Member Uploader

    Joined:
    Jun 1, 2017
    Messages:
    561
    Likes Received:
    935
  4. selenagomez23

    selenagomez23 Member

    Joined:
    Aug 20, 2016
    Messages:
    286
    Likes Received:
    4
  5. JimmySwifties

    JimmySwifties [Uploader] and [Requester]

    Joined:
    Mar 23, 2017
    Messages:
    244
    Likes Received:
    448
    THANKS YOUUU
     
  6. ivan_sj

    ivan_sj Member

    Joined:
    Jul 24, 2014
    Messages:
    156
    Likes Received:
    4
    Thanks!
     
  7. vladana_91

    vladana_91 Member

    Joined:
    Mar 15, 2017
    Messages:
    44
    Likes Received:
    1
    thanks!
     
  8. P1956

    P1956 Active Member

    Joined:
    Aug 18, 2014
    Messages:
    556
    Likes Received:
    60
    thanks
     
  9. templed5

    templed5 Member

    Joined:
    Jan 14, 2017
    Messages:
    301
    Likes Received:
    7
    thank u
     
  10. serafxn

    serafxn New Member

    Joined:
    Jun 4, 2018
    Messages:
    14
    Likes Received:
    0
    omgggggggg
     
  11. vinniecesarone

    vinniecesarone Member

    Joined:
    Dec 7, 2016
    Messages:
    56
    Likes Received:
    3
    awesome
     
  12. jnetow

    jnetow Member

    Joined:
    Dec 20, 2015
    Messages:
    67
    Likes Received:
    2
    thank you
     
  13. whosjessanywayew

    whosjessanywayew Member

    Joined:
    Jan 12, 2017
    Messages:
    169
    Likes Received:
    7
  14. GuilhermeC01

    GuilhermeC01 Member

    Joined:
    Feb 4, 2017
    Messages:
    89
    Likes Received:
    47
    THanks
    [​IMG]
    [​IMG]
    [​IMG]


    Complete name : J:\Taylor Swift - Road To Reputation- 2018.ts
    Format : MPEG-TS
    File size : 1.97 GiB
    Duration : 42 min 33 s
    Overall bit rate mode : Variable
    Overall bit rate : 6 633 kb/s
    Maximum Overall bit rate : 35.5 Mb/s
    Video
    ID : 4113 (0x1011)
    Menu ID : 1 (0x1)
    Format : AVC
    Format/Info : Advanced Video Codec
    Format profile : Baseline@L3
    Format settings : 1 Ref Frames
    Format settings, CABAC : No
    Format settings, RefFrames : 1 frame
    Codec ID : 27
    Duration : 42 min 33 s
    Bit rate mode : Variable
    Bit rate : 5 982 kb/s
    Maximum bit rate : 40.0 Mb/s
    Width : 1 920 pixels
    Height : 1 080 pixels
    Display aspect ratio : 16:9
    Frame rate : 25.000 FPS
    Color space : YUV
    Chroma subsampling : 4:2:0
    Bit depth : 8 bits
    Scan type : Progressive
    Bits/(Pixel*Frame) : 0.115
    Stream size : 1.78 GiB (90%)
    Audio
    ID : 4352 (0x1100)
    Menu ID : 1 (0x1)
    Format : AC-3
    Format/Info : Audio Coding 3
    Codec ID : 129
    Duration : 42 min 33 s
    Bit rate mode : Constant
    Bit rate : 320 kb/s
    Channel(s) : 2 channels
    Channel positions : Front: L R
    Sampling rate : 44.1 kHz
    Frame rate : 28.711 FPS (1536 SPF)
    Bit depth : 16 bits
    Compression mode : Lossy
    Stream size : 97.4 MiB (5%)
    Service kind : Complete Main



    ***Hidden content cannot be quoted.***
    [/QUOTE]
     
  15. mefju945

    mefju945 New Member

    Joined:
    Jul 18, 2015
    Messages:
    12
    Likes Received:
    3
    love you <3
     
  16. WDRB_GSZMZ

    WDRB_GSZMZ Active Member

    Joined:
    Mar 23, 2018
    Messages:
    347
    Likes Received:
    87
    thanks!!!!!
     
  17. Mozzie

    Mozzie Member

    Joined:
    Nov 6, 2017
    Messages:
    209
    Likes Received:
    16
    thanks
     
  18. ruhull.fb

    ruhull.fb Active Member

    Joined:
    May 19, 2017
    Messages:
    392
    Likes Received:
    33
  19. dimrous22

    dimrous22 Active Member

    Joined:
    Sep 11, 2016
    Messages:
    650
    Likes Received:
    25
  20. bruno1901

    bruno1901 Active Member

    Joined:
    Dec 9, 2015
    Messages:
    773
    Likes Received:
    96
    :love::love::love:Thank You:love::love:
     
  21. eugene89

    eugene89 Member

    Joined:
    Jul 3, 2018
    Messages:
    50
    Likes Received:
    2