DVD9 Taylor Swift - Speak Now World Tour Live (2011) Bonus DVD (NTSC-DVD9-MDVDR-Aurora)

Discussion in 'DVD' started by vans, Feb 4, 2014.

  1. 010juninho

    010juninho Well-Known Member

    Joined:
    Jan 16, 2016
    Messages:
    1,124
    Likes Received:
    52
    Thank You
     
  2. Nicolas.rodriguezswift

    Nicolas.rodriguezswift Member

    Joined:
    Mar 24, 2017
    Messages:
    114
    Likes Received:
    1
    Thank you so much
     
  3. fckinlife

    fckinlife Member

    Joined:
    Apr 8, 2017
    Messages:
    33
    Likes Received:
    62
    thank you
     
  4. eugene89

    eugene89 Member

    Joined:
    Jul 3, 2018
    Messages:
    45
    Likes Received:
    2
    thanks
     
  5. Gil0

    Gil0 Member

    Joined:
    May 14, 2018
    Messages:
    67
    Likes Received:
    0
    THANKS
     
  6. ohadswift

    ohadswift Member

    Joined:
    Jan 21, 2018
    Messages:
    74
    Likes Received:
    5
    THANKSSSSSSS
     
  7. volta

    volta Member

    Joined:
    Jul 12, 2018
    Messages:
    57
    Likes Received:
    10
    [​IMG]

    1. Sparks Fly
    2. Mine
    3. The Story Of Us
    4. Our Song
    5. Mean
    6. Back To December / Apologize / You're Not Sorry
    7. Better Than Revenge
    8. Speak Now
    9. Fearless / I'm Yours / Hey, Soul Sister
    10. Last Kiss
    11. Drops Of Jupiter
    12. You Belong With Me
    13. Dean John
    14. Enchanted
    15. Haunted
    16. Long Live
    17. Ours
    18. Fifteen
    19. Love Story
    20. Nashville
    21. Sweet Escape
    22. On The Set With Taylor Swift: Mean
    23. Home Movies
    24. Rehearsal of the Speak Now World Tour

    [​IMG]

    [​IMG]

    Code:
    General
    Complete name                            : Taylor Swift - Speak Now World Tour Live (2011) Bonus DVD (NTSC-DVD9-MDVDR-Aurora)\VTS_01_1.VOB
    Format                                  : MPEG-PS
    File size                                : 1 024 MiB
    Duration                                : 23mn 13s
    Overall bit rate mode                    : Variable
    Overall bit rate                        : 6 165 Kbps
    Writing library                          : encoded by TMPGEnc (ver. 2.524.63.181)
    
    Video
    ID                                      : 224 (0xE0)
    Format                                  : MPEG Video
    Format version                          : Version 2
    Format profile                          : Main@Main
    Format settings, BVOP                    : Yes
    Format settings, Matrix                  : Custom
    Format settings, GOP                    : Variable
    Duration                                : 23mn 13s
    Bit rate mode                            : Variable
    Bit rate                                : 4 059 Kbps
    Width                                    : 720 pixels
    Height                                  : 480 pixels
    Display aspect ratio                    : 16:9
    Frame rate                              : 23.976 fps
    Standard                                : NTSC
    Color space                              : YUV
    Chroma subsampling                      : 4:2:0
    Bit depth                                : 8 bits
    Scan type                                : Progressive
    Scan order                              : 2:3 Pulldown
    Compression mode                        : Lossy
    Bits/(Pixel*Frame)                      : 0.490
    Time code of first frame                : 00:00:00:00
    Time code source                        : Group of pictures header
    Stream size                              : 674 MiB (66%)
    Writing library                          : TMPGEnc 2.524.63.181
    Color primaries                          : BT.601 NTSC
    Transfer characteristics                : BT.601
    Matrix coefficients                      : BT.601
    
    Audio #1
    ID                                      : 189 (0xBD)-129 (0x81)
    Format                                  : AC-3
    Format/Info                              : Audio Coding 3
    Mode extension                          : CM (complete main)
    Format settings, Endianness              : Big
    Muxing mode                              : DVD-Video
    Duration                                : 23mn 12s
    Bit rate mode                            : Constant
    Bit rate                                : 448 Kbps
    Channel(s)                              : 6 channels
    Channel positions                        : Front: L C R, Side: L R, LFE
    Sampling rate                            : 48.0 KHz
    Bit depth                                : 16 bits
    Compression mode                        : Lossy
    Stream size                              : 74.4 MiB (7%)
    
    Audio #2
    ID                                      : 189 (0xBD)-160 (0xA0)
    Format                                  : PCM
    Format settings, Endianness              : Big
    Format settings, Sign                    : Signed
    Muxing mode                              : DVD-Video
    Duration                                : 23mn 12s
    Bit rate mode                            : Constant
    Bit rate                                : 1 536 Kbps
    Channel(s)                              : 2 channels
    Sampling rate                            : 48.0 KHz
    Bit depth                                : 16 bits
    Stream size                              : 255 MiB (25%)
    ***Hidden content cannot be quoted.***


    Password: sharemania.us


    Credits: Aurora[/QUOTE]
     
    partypoison13 and ekta like this.
  8. elnardgandalf

    elnardgandalf Member

    Joined:
    May 23, 2017
    Messages:
    105
    Likes Received:
    0
  9. volta

    volta Member

    Joined:
    Jul 12, 2018
    Messages:
    57
    Likes Received:
    10
    [​IMG]

    1. Sparks Fly
    2. Mine
    3. The Story Of Us
    4. Our Song
    5. Mean
    6. Back To December / Apologize / You're Not Sorry
    7. Better Than Revenge
    8. Speak Now
    9. Fearless / I'm Yours / Hey, Soul Sister
    10. Last Kiss
    11. Drops Of Jupiter
    12. You Belong With Me
    13. Dean John
    14. Enchanted
    15. Haunted
    16. Long Live
    17. Ours
    18. Fifteen
    19. Love Story
    20. Nashville
    21. Sweet Escape
    22. On The Set With Taylor Swift: Mean
    23. Home Movies
    24. Rehearsal of the Speak Now World Tour

    [​IMG]

    [​IMG]

    Code:
    General
    Complete name                            : Taylor Swift - Speak Now World Tour Live (2011) Bonus DVD (NTSC-DVD9-MDVDR-Aurora)\VTS_01_1.VOB
    Format                                  : MPEG-PS
    File size                                : 1 024 MiB
    Duration                                : 23mn 13s
    Overall bit rate mode                    : Variable
    Overall bit rate                        : 6 165 Kbps
    Writing library                          : encoded by TMPGEnc (ver. 2.524.63.181)
    
    Video
    ID                                      : 224 (0xE0)
    Format                                  : MPEG Video
    Format version                          : Version 2
    Format profile                          : Main@Main
    Format settings, BVOP                    : Yes
    Format settings, Matrix                  : Custom
    Format settings, GOP                    : Variable
    Duration                                : 23mn 13s
    Bit rate mode                            : Variable
    Bit rate                                : 4 059 Kbps
    Width                                    : 720 pixels
    Height                                  : 480 pixels
    Display aspect ratio                    : 16:9
    Frame rate                              : 23.976 fps
    Standard                                : NTSC
    Color space                              : YUV
    Chroma subsampling                      : 4:2:0
    Bit depth                                : 8 bits
    Scan type                                : Progressive
    Scan order                              : 2:3 Pulldown
    Compression mode                        : Lossy
    Bits/(Pixel*Frame)                      : 0.490
    Time code of first frame                : 00:00:00:00
    Time code source                        : Group of pictures header
    Stream size                              : 674 MiB (66%)
    Writing library                          : TMPGEnc 2.524.63.181
    Color primaries                          : BT.601 NTSC
    Transfer characteristics                : BT.601
    Matrix coefficients                      : BT.601
    
    Audio #1
    ID                                      : 189 (0xBD)-129 (0x81)
    Format                                  : AC-3
    Format/Info                              : Audio Coding 3
    Mode extension                          : CM (complete main)
    Format settings, Endianness              : Big
    Muxing mode                              : DVD-Video
    Duration                                : 23mn 12s
    Bit rate mode                            : Constant
    Bit rate                                : 448 Kbps
    Channel(s)                              : 6 channels
    Channel positions                        : Front: L C R, Side: L R, LFE
    Sampling rate                            : 48.0 KHz
    Bit depth                                : 16 bits
    Compression mode                        : Lossy
    Stream size                              : 74.4 MiB (7%)
    
    Audio #2
    ID                                      : 189 (0xBD)-160 (0xA0)
    Format                                  : PCM
    Format settings, Endianness              : Big
    Format settings, Sign                    : Signed
    Muxing mode                              : DVD-Video
    Duration                                : 23mn 12s
    Bit rate mode                            : Constant
    Bit rate                                : 1 536 Kbps
    Channel(s)                              : 2 channels
    Sampling rate                            : 48.0 KHz
    Bit depth                                : 16 bits
    Stream size                              : 255 MiB (25%)
    ***Hidden content cannot be quoted.***


    Password: sharemania.us


    Credits: Aurora[/QUOTE][/QUOTE]
     
  10. sixtiesqueen

    sixtiesqueen New Member

    Joined:
    Apr 14, 2018
    Messages:
    23
    Likes Received:
    0
  11. fernando85

    fernando85 Member

    Joined:
    Mar 29, 2018
    Messages:
    65
    Likes Received:
    7
    [​IMG]

    1. Sparks Fly
    2. Mine
    3. The Story Of Us
    4. Our Song
    5. Mean
    6. Back To December / Apologize / You're Not Sorry
    7. Better Than Revenge
    8. Speak Now
    9. Fearless / I'm Yours / Hey, Soul Sister
    10. Last Kiss
    11. Drops Of Jupiter
    12. You Belong With Me
    13. Dean John
    14. Enchanted
    15. Haunted
    16. Long Live
    17. Ours
    18. Fifteen
    19. Love Story
    20. Nashville
    21. Sweet Escape
    22. On The Set With Taylor Swift: Mean
    23. Home Movies
    24. Rehearsal of the Speak Now World Tour

    [​IMG]

    [​IMG]

    Code:
    General
    Complete name                            : Taylor Swift - Speak Now World Tour Live (2011) Bonus DVD (NTSC-DVD9-MDVDR-Aurora)\VTS_01_1.VOB
    Format                                  : MPEG-PS
    File size                                : 1 024 MiB
    Duration                                : 23mn 13s
    Overall bit rate mode                    : Variable
    Overall bit rate                        : 6 165 Kbps
    Writing library                          : encoded by TMPGEnc (ver. 2.524.63.181)
    
    Video
    ID                                      : 224 (0xE0)
    Format                                  : MPEG Video
    Format version                          : Version 2
    Format profile                          : Main@Main
    Format settings, BVOP                    : Yes
    Format settings, Matrix                  : Custom
    Format settings, GOP                    : Variable
    Duration                                : 23mn 13s
    Bit rate mode                            : Variable
    Bit rate                                : 4 059 Kbps
    Width                                    : 720 pixels
    Height                                  : 480 pixels
    Display aspect ratio                    : 16:9
    Frame rate                              : 23.976 fps
    Standard                                : NTSC
    Color space                              : YUV
    Chroma subsampling                      : 4:2:0
    Bit depth                                : 8 bits
    Scan type                                : Progressive
    Scan order                              : 2:3 Pulldown
    Compression mode                        : Lossy
    Bits/(Pixel*Frame)                      : 0.490
    Time code of first frame                : 00:00:00:00
    Time code source                        : Group of pictures header
    Stream size                              : 674 MiB (66%)
    Writing library                          : TMPGEnc 2.524.63.181
    Color primaries                          : BT.601 NTSC
    Transfer characteristics                : BT.601
    Matrix coefficients                      : BT.601
    
    Audio #1
    ID                                      : 189 (0xBD)-129 (0x81)
    Format                                  : AC-3
    Format/Info                              : Audio Coding 3
    Mode extension                          : CM (complete main)
    Format settings, Endianness              : Big
    Muxing mode                              : DVD-Video
    Duration                                : 23mn 12s
    Bit rate mode                            : Constant
    Bit rate                                : 448 Kbps
    Channel(s)                              : 6 channels
    Channel positions                        : Front: L C R, Side: L R, LFE
    Sampling rate                            : 48.0 KHz
    Bit depth                                : 16 bits
    Compression mode                        : Lossy
    Stream size                              : 74.4 MiB (7%)
    
    Audio #2
    ID                                      : 189 (0xBD)-160 (0xA0)
    Format                                  : PCM
    Format settings, Endianness              : Big
    Format settings, Sign                    : Signed
    Muxing mode                              : DVD-Video
    Duration                                : 23mn 12s
    Bit rate mode                            : Constant
    Bit rate                                : 1 536 Kbps
    Channel(s)                              : 2 channels
    Sampling rate                            : 48.0 KHz
    Bit depth                                : 16 bits
    Stream size                              : 255 MiB (25%)
    ***Hidden content cannot be quoted.***


    Password: sharemania.us


    Credits: Aurora[/QUOTE]
     
  12. mermaid

    mermaid Active Member

    Joined:
    Apr 1, 2016
    Messages:
    348
    Likes Received:
    25
    thanks
     
  13. fernando85

    fernando85 Member

    Joined:
    Mar 29, 2018
    Messages:
    65
    Likes Received:
    7
    [​IMG]

    1. Sparks Fly
    2. Mine
    3. The Story Of Us
    4. Our Song
    5. Mean
    6. Back To December / Apologize / You're Not Sorry
    7. Better Than Revenge
    8. Speak Now
    9. Fearless / I'm Yours / Hey, Soul Sister
    10. Last Kiss
    11. Drops Of Jupiter
    12. You Belong With Me
    13. Dean John
    14. Enchanted
    15. Haunted
    16. Long Live
    17. Ours
    18. Fifteen
    19. Love Story
    20. Nashville
    21. Sweet Escape
    22. On The Set With Taylor Swift: Mean
    23. Home Movies
    24. Rehearsal of the Speak Now World Tour

    [​IMG]

    [​IMG]

    Code:
    General
    Complete name                            : Taylor Swift - Speak Now World Tour Live (2011) Bonus DVD (NTSC-DVD9-MDVDR-Aurora)\VTS_01_1.VOB
    Format                                  : MPEG-PS
    File size                                : 1 024 MiB
    Duration                                : 23mn 13s
    Overall bit rate mode                    : Variable
    Overall bit rate                        : 6 165 Kbps
    Writing library                          : encoded by TMPGEnc (ver. 2.524.63.181)
    
    Video
    ID                                      : 224 (0xE0)
    Format                                  : MPEG Video
    Format version                          : Version 2
    Format profile                          : Main@Main
    Format settings, BVOP                    : Yes
    Format settings, Matrix                  : Custom
    Format settings, GOP                    : Variable
    Duration                                : 23mn 13s
    Bit rate mode                            : Variable
    Bit rate                                : 4 059 Kbps
    Width                                    : 720 pixels
    Height                                  : 480 pixels
    Display aspect ratio                    : 16:9
    Frame rate                              : 23.976 fps
    Standard                                : NTSC
    Color space                              : YUV
    Chroma subsampling                      : 4:2:0
    Bit depth                                : 8 bits
    Scan type                                : Progressive
    Scan order                              : 2:3 Pulldown
    Compression mode                        : Lossy
    Bits/(Pixel*Frame)                      : 0.490
    Time code of first frame                : 00:00:00:00
    Time code source                        : Group of pictures header
    Stream size                              : 674 MiB (66%)
    Writing library                          : TMPGEnc 2.524.63.181
    Color primaries                          : BT.601 NTSC
    Transfer characteristics                : BT.601
    Matrix coefficients                      : BT.601
    
    Audio #1
    ID                                      : 189 (0xBD)-129 (0x81)
    Format                                  : AC-3
    Format/Info                              : Audio Coding 3
    Mode extension                          : CM (complete main)
    Format settings, Endianness              : Big
    Muxing mode                              : DVD-Video
    Duration                                : 23mn 12s
    Bit rate mode                            : Constant
    Bit rate                                : 448 Kbps
    Channel(s)                              : 6 channels
    Channel positions                        : Front: L C R, Side: L R, LFE
    Sampling rate                            : 48.0 KHz
    Bit depth                                : 16 bits
    Compression mode                        : Lossy
    Stream size                              : 74.4 MiB (7%)
    
    Audio #2
    ID                                      : 189 (0xBD)-160 (0xA0)
    Format                                  : PCM
    Format settings, Endianness              : Big
    Format settings, Sign                    : Signed
    Muxing mode                              : DVD-Video
    Duration                                : 23mn 12s
    Bit rate mode                            : Constant
    Bit rate                                : 1 536 Kbps
    Channel(s)                              : 2 channels
    Sampling rate                            : 48.0 KHz
    Bit depth                                : 16 bits
    Stream size                              : 255 MiB (25%)
    ***Hidden content cannot be quoted.***


    Password: sharemania.us


    Credits: Aurora[/QUOTE][/QUOTE]
     
  14. MaryI

    MaryI New Member

    Joined:
    Sep 26, 2016
    Messages:
    14
    Likes Received:
    0
    thanks <3
     
  15. kakaaws

    kakaaws Member

    Joined:
    Jan 7, 2017
    Messages:
    264
    Likes Received:
    19