BDRiP Taylor Swift - Speak Now World Tour Live 2011 - Blu-ray 1080p x264 DD51 MySilu

Discussion in 'BLU-RAY' started by hanshermann, Jul 8, 2017.

  1. hanshermann

    hanshermann Well-Known Member Uploader

    Joined:
    Aug 24, 2016
    Messages:
    6,951
    Likes Received:
    11,167
    [​IMG]

    Taylor Swift - Speak Now World Tour Live 2011 - Blu-ray 1080p x264 DD51 MySilu

    Code:
    General
    Unique ID                   : 209704865680480146290598573134952087223 (0x9DC3B022B821F54899069CDD3F713EB7)
    Complete name               : Taylor.Swift.Speak.Now.World.Tour.Live.2011.Blu-ray.1080p.x264.DD51.MySilu.mkv
    Format                      : Matroska
    Format version              : Version 2
    File size                   : 10.00 GiB
    Duration                    : 2 h 9 min
    Overall bit rate            : 11.1 Mb/s
    Encoded date                : UTC 2012-12-24 00:28:01
    Writing application         : mkvmerge v3.4.0 ('Rapunzel') 编译于 May 15 2010 09:38:20
    Writing library             : libebml v0.8.0 + libmatroska v0.9.0
    
    Video
    ID                          : 1
    Format                      : AVC
    Format/Info                 : Advanced Video Codec
    Format profile              : High@L4.1
    Format settings, CABAC      : Yes
    Format settings, ReFrames   : 4 frames
    Codec ID                    : V_MPEG4/ISO/AVC
    Duration                    : 2 h 9 min
    Bit rate                    : 10.6 Mb/s
    Width                       : 1 920 pixels
    Height                      : 1 080 pixels
    Display aspect ratio        : 16:9
    Frame rate mode             : Constant
    Frame rate                  : 23.976 (24000/1001) FPS
    Color space                 : YUV
    Chroma subsampling          : 4:2:0
    Bit depth                   : 8 bits
    Scan type                   : Progressive
    Bits/(Pixel*Frame)          : 0.213
    Stream size                 : 9.39 GiB (94%)
    Title                       : Taylor.Swift.Speak.Now.World.Tour.Live.2011.Blu-ray.1080p.x264.DD51.MySilu
    Writing library             : x264 core 129 r2230 1cffe9f
    
    Language                    : English
    Default                     : Yes
    Forced                      : No
    
    Audio
    ID                          : 2
    Format                      : AC-3
    Format/Info                 : Audio Coding 3
    Format settings, Endianness : Big
    Codec ID                    : A_AC3
    Duration                    : 2 h 9 min
    Bit rate mode               : Constant
    Bit rate                    : 448 kb/s
    Channel(s)                  : 6 channels
    Channel positions           : Front: L C R, Side: L R, LFE
    Sampling rate               : 48.0 kHz
    Frame rate                  : 31.250 FPS (1536 spf)
    Bit depth                   : 16 bits
    Compression mode            : Lossy
    Stream size                 : 415 MiB (4%)
    Language                    : English
    Service kind                : Complete Main
    Default                     : Yes
    Forced                      : No
    Hidden Content:
    You must either reply or click 'Like' to see the hidden information contained here.
     
    Last edited: Jun 29, 2018
  2. Loading...


  3. beyoncefan666

    beyoncefan666 New Member

    Joined:
    Apr 25, 2017
    Messages:
    27
    Likes Received:
    0
  4. abcde54321

    abcde54321 Active Member

    Joined:
    Apr 6, 2014
    Messages:
    928
    Likes Received:
    27
    Unique ID : 209704865680480146290598573134952087223 (0x9DC3B022B821F54899069CDD3F713EB7)
    Complete name : Taylor.Swift.Speak.Now.World.Tour.Live.2011.Blu-ray.1080p.x264.DD51.MySilu.mkv
    Format : Matroska
    Format version : Version 2
    File size : 10.00 GiB
    Duration : 2 h 9 min
    Overall bit rate : 11.1 Mb/s
    Encoded date : UTC 2012-12-24 00:28:01
    Writing application : mkvmerge v3.4.0 ('Rapunzel') 编译于 May 15 2010 09:38:20
    Writing library : libebml v0.8.0 + libmatroska v0.9.0

    Video
    ID : 1
     
    Josue Swift likes this.
  5. rhea

    rhea Well-Known Member

    Joined:
    Jan 6, 2014
    Messages:
    8,083
    Likes Received:
    1,113
    thanks
     
  6. KaiKawaii

    KaiKawaii Well-Known Member Uploader

    Joined:
    Jun 1, 2017
    Messages:
    516
    Likes Received:
    753
    Thanks
     
  7. wolfsbaneholly

    wolfsbaneholly Member

    Joined:
    Jan 16, 2017
    Messages:
    133
    Likes Received:
    4
  8. exterminador

    exterminador Well-Known Member

    Joined:
    Jul 3, 2016
    Messages:
    2,403
    Likes Received:
    208
  9. yoereyesr21

    yoereyesr21 Active Member

    Joined:
    Mar 12, 2016
    Messages:
    321
    Likes Received:
    44
  10. selenagomez23

    selenagomez23 Member

    Joined:
    Aug 20, 2016
    Messages:
    274
    Likes Received:
    4
  11. kiiwii

    kiiwii Member

    Joined:
    Oct 10, 2013
    Messages:
    375
    Likes Received:
    10
    thanks
     
  12. jazminealice

    jazminealice Member

    Joined:
    Sep 21, 2014
    Messages:
    160
    Likes Received:
    1
  13. xxroniexx

    xxroniexx Member

    Joined:
    Apr 24, 2016
    Messages:
    53
    Likes Received:
    3
    thNAKS
     
  14. mizdot

    mizdot Well-Known Member

    Joined:
    Nov 13, 2014
    Messages:
    2,845
    Likes Received:
    120
    tnx man
     
  15. ghepiek

    ghepiek New Member

    Joined:
    Dec 23, 2016
    Messages:
    25
    Likes Received:
    0
    thanks
     
  16. taytayswiftys2

    taytayswiftys2 Member

    Joined:
    Jul 24, 2017
    Messages:
    36
    Likes Received:
    0
  17. t-swift

    t-swift Member

    Joined:
    Dec 7, 2016
    Messages:
    65
    Likes Received:
    0
    thanks
     
  18. ensain

    ensain New Member

    Joined:
    Jul 31, 2017
    Messages:
    1
    Likes Received:
    0
    Thanks!
     
  19. Smythy

    Smythy Has small Taylor Swift collection...

    Joined:
    Mar 15, 2017
    Messages:
    253
    Likes Received:
    226
    Thanks for Taylor!
     
  20. vanillan

    vanillan Member

    Joined:
    Jan 8, 2017
    Messages:
    120
    Likes Received:
    4
    thank you
     
  21. BruceBogtrotter

    BruceBogtrotter New Member

    Joined:
    Aug 6, 2017
    Messages:
    3
    Likes Received:
    0