Taylor Swift - Shake It Off (BridgeHD-1080i-MP2-Olgold)-HDMania

Discussion in 'Bridge HD' started by Olgold, Oct 17, 2016.

  1. Olgold

    Olgold Well-Known Member Capper

    Joined:
    Aug 19, 2015
    Messages:
    436
    Likes Received:
    1,708
    Taylor Swift - Shake It Off
    [​IMG]
    General
    Format : MPEG-TS
    File size : 178 MiB
    Duration : 3 min 47 s
    Overall bit rate mode : Variable
    Overall bit rate : 6 569 kb/s

    Video
    Format : AVC
    Format/Info : Advanced Video Codec
    Format profile : [email protected]
    Format settings, CABAC : Yes
    Format settings, ReFrames : 4 frames
    Duration : 3 min 46 s
    Bit rate : 6 051 kb/s
    Width : 1 920 pixels
    Height : 1 080 pixels
    Display aspect ratio : 16:9
    Frame rate : 25.000 FPS
    Standard : Component
    Color space : YUV
    Chroma subsampling : 4:2:0
    Bit depth : 8 bits
    Scan type : Interlaced
    Scan type, store method : Separated fields
    Scan order : Top Field First
    Bits/(Pixel*Frame) : 0.117
    Stream size : 163 MiB (92%)
    Color range : Limited

    Audio
    Format : MPEG Audio
    Format version : Version 1
    Format profile : Layer 2
    Duration : 3 min 47 s
    Bit rate mode : Constant
    Bit rate : 192 kb/s
    Channel(s) : 2 channels
    Sampling rate : 48.0 kHz
    Compression mode : Lossy
    Delay relative to video : -12 ms
    Stream size : 5.21 MiB (3%)
    Password: Olgold

    Hidden Content:
    You must reply before you can see the hidden data contained here.
     
    duke0385, rhea and CELOBRAZiL like this.
  2. Loading...


  3. Grailen

    Grailen Well-Known Member

    Joined:
    Oct 8, 2013
    Messages:
    606
    Likes Received:
    777
    thank you :)
     
  4. CELOBRAZiL

    CELOBRAZiL Well-Known Member Capper V . I . P. Donor

    Joined:
    Oct 2, 2013
    Messages:
    4,093
    Likes Received:
    12,871
    Thank you so much! :)
     
  5. rhea

    rhea Well-Known Member

    Joined:
    Jan 6, 2014
    Messages:
    6,956
    Likes Received:
    755
    thank you so much :)
     
  6. 1asad1

    1asad1 Member

    Joined:
    Apr 23, 2016
    Messages:
    156
    Likes Received:
    11
    thank you
     
  7. Lucky

    Lucky Active Member

    Joined:
    Sep 26, 2016
    Messages:
    358
    Likes Received:
    33
    thank you
     
  8. DopeHat

    DopeHat Active Member

    Joined:
    Sep 15, 2016
    Messages:
    317
    Likes Received:
    138
    id love it without the watermark.
     
  9. BinhTVT

    BinhTVT Member

    Joined:
    Jun 30, 2015
    Messages:
    182
    Likes Received:
    3
    thank you
     
  10. Joseph

    Joseph Active Member

    Joined:
    Dec 10, 2013
    Messages:
    748
    Likes Received:
    168
    thanks
     
  11. konkydong

    konkydong Member

    Joined:
    Feb 19, 2017
    Messages:
    39
    Likes Received:
    2
    Thanks





     
  12. hanshermann

    hanshermann Well-Known Member Uploader

    Joined:
    Aug 24, 2016
    Messages:
    5,042
    Likes Received:
    3,828
    wahts taht
     
  13. seregil

    seregil Member

    Joined:
    Sep 5, 2014
    Messages:
    103
    Likes Received:
    1
    thanks
     
  14. 777josem

    777josem ProRes 1080p LPCM V . I . P. Uploader

    Joined:
    Sep 1, 2014
    Messages:
    3,707
    Likes Received:
    2,933
    thank you