Taylor Swift - Shake It Off (BridgeHD-1080i-MP2-Olgold)-HDMania

Discussion in 'Bridge HD' started by Olgold, Oct 17, 2016.

  1. Olgold

    Olgold Well-Known Member Capper

    Joined:
    Aug 19, 2015
    Messages:
    386
    Likes Received:
    1,309
    Taylor Swift - Shake It Off
    [​IMG]
    General
    Format : MPEG-TS
    File size : 178 MiB
    Duration : 3 min 47 s
    Overall bit rate mode : Variable
    Overall bit rate : 6 569 kb/s

    Video
    Format : AVC
    Format/Info : Advanced Video Codec
    Format profile : High@L4
    Format settings, CABAC : Yes
    Format settings, ReFrames : 4 frames
    Duration : 3 min 46 s
    Bit rate : 6 051 kb/s
    Width : 1 920 pixels
    Height : 1 080 pixels
    Display aspect ratio : 16:9
    Frame rate : 25.000 FPS
    Standard : Component
    Color space : YUV
    Chroma subsampling : 4:2:0
    Bit depth : 8 bits
    Scan type : Interlaced
    Scan type, store method : Separated fields
    Scan order : Top Field First
    Bits/(Pixel*Frame) : 0.117
    Stream size : 163 MiB (92%)
    Color range : Limited

    Audio
    Format : MPEG Audio
    Format version : Version 1
    Format profile : Layer 2
    Duration : 3 min 47 s
    Bit rate mode : Constant
    Bit rate : 192 kb/s
    Channel(s) : 2 channels
    Sampling rate : 48.0 kHz
    Compression mode : Lossy
    Delay relative to video : -12 ms
    Stream size : 5.21 MiB (3%)
    Password: Olgold

    Hidden Content:
    You must reply before you can see the hidden data contained here.
     
    rhea and CELOBRAZiL like this.
  2. Loading...


  3. Grailen

    Grailen Well-Known Member

    Joined:
    Oct 8, 2013
    Messages:
    529
    Likes Received:
    467
    thank you :)
     
  4. CELOBRAZiL

    CELOBRAZiL Well-Known Member Capper V . I . P. Donor

    Joined:
    Oct 2, 2013
    Messages:
    1,618
    Likes Received:
    4,397
    Thank you so much! :)
     
  5. rhea

    rhea Well-Known Member

    Joined:
    Jan 6, 2014
    Messages:
    5,258
    Likes Received:
    253
    thank you so much :)
     
  6. 1asad1

    1asad1 Member

    Joined:
    Apr 23, 2016
    Messages:
    98
    Likes Received:
    8
    thank you
     
  7. Lucky

    Lucky Member

    Joined:
    Sep 26, 2016
    Messages:
    229
    Likes Received:
    11
    thank you
     
  8. DopeHat

    DopeHat Member

    Joined:
    Sep 15, 2016
    Messages:
    125
    Likes Received:
    22
    id love it without the watermark.
     
  9. BinhTVT

    BinhTVT Member

    Joined:
    Jun 30, 2015
    Messages:
    176
    Likes Received:
    3
    thank you
     
  10. Joseph

    Joseph Active Member

    Joined:
    Dec 10, 2013
    Messages:
    729
    Likes Received:
    147
    thanks