Taylor Swift - Receives Dick Clark Award For Excellence - 2014 American Music Awards 1080i 29Mbps

Discussion in 'Trash Bin' started by Darkangel, Nov 24, 2014.

  1. Darkangel

    Darkangel Super Moderator Staff Member Super Moderator Capper V . I . P.

    Joined:
    Oct 7, 2013
    Messages:
    2,862
    Likes Received:
    28,141
    [​IMG]
    Code:
    Complete name  : Taylor Swift - Receives Dick Clark Award For Excellence - 2014 American Music Awards 1080i HDTV 29Mbps 4-2-2 MPA2.0 MPEG2-art-v-k.ts
    Format  : MPEG-TS
    File size  : 1.46 GiB
    Duration  : 7mn 5s
    Overall bit rate mode  : Variable
    Overall bit rate  : 29.4 Mbps
    
    Video
    ID  : 308 (0x134)
    Menu ID  : 1 (0x1)
    Format  : MPEG Video
    Format version  : Version 2
    Format profile  : 4:2:2@High
    Format settings, BVOP  : Yes
    Format settings, Matrix  : Default
    Format settings, GOP  : M=2, N=16
    Codec ID  : 2
    Duration  : 7mn 5s
    Bit rate mode  : Variable
    Bit rate  : 27.4 Mbps
    Maximum bit rate  : 28.9 Mbps
    Width  : 1 920 pixels
    Height  : 1 080 pixels
    Display aspect ratio  : 16:9
    Active Format Description  : Full frame 16:9 image
    Frame rate  : 25.000 fps
    Color space  : YUV
    Chroma subsampling  : 4:2:2
    Bit depth  : 8 bits
    Scan type  : Interlaced
    Scan order  : Top Field First
    Compression mode  : Lossy
    Bits/(Pixel*Frame)  : 0.529
    Time code of first frame  : 00:00:00:00
    Time code source  : Group of pictures header
    Stream size  : 1.36 GiB (93%)
    
    Audio #1
    ID  : 256 (0x100)
    Menu ID  : 1 (0x1)
    Format  : MPEG Audio
    Format version  : Version 1
    Format profile  : Layer 2
    Codec ID  : 4
    Duration  : 7mn 5s
    Bit rate mode  : Constant
    Bit rate  : 256 Kbps
    Channel(s)  : 2 channels
    Sampling rate  : 48.0 KHz
    Compression mode  : Lossy
    Delay relative to video  : -452ms
    Stream size  : 13.0 MiB (1%)
    Language  : English
    
    Audio #2
    ID  : 257 (0x101)
    Menu ID  : 1 (0x1)
    Format  : MPEG Audio
    Format version  : Version 1
    Format profile  : Layer 2
    Codec ID  : 4
    Duration  : 7mn 5s
    Bit rate mode  : Constant
    Bit rate  : 256 Kbps
    Channel(s)  : 2 channels
    Sampling rate  : 48.0 KHz
    Compression mode  : Lossy
    Delay relative to video  : -412ms
    Stream size  : 13.0 MiB (1%)
    Language  : French
    
    Menu
    ID  : 32 (0x20)
    Menu ID  : 1 (0x1)
    Duration  : 7mn 5s
    List  : 308 (0x134) (MPEG Video) / 256 (0x100) (MPEG Audio, English) / 257 (0x101) (MPEG Audio, French)
    Language  :  / English / French
    Maximum bit rate  : 200000000
    Hidden Content:
    You must either reply or click 'Like' to see the hidden information contained here.
    Credit to art-v-k and hiepham
     
    ellieqiu, KaiKawaii, t-swift and 10 others like this.
  2. alex

    alex Well-Known Member

    Joined:
    Nov 21, 2013
    Messages:
    4,612
    Likes Received:
    437
    Thanks a lot:D
     
  3. widi

    widi Active Member

    Joined:
    Dec 5, 2013
    Messages:
    164
    Likes Received:
    94
    Thanks
     
  4. joelh20101

    joelh20101 Well-Known Member

    Joined:
    Nov 4, 2013
    Messages:
    1,557
    Likes Received:
    164
  5. Andrey

    Andrey Member

    Joined:
    Feb 20, 2014
    Messages:
    97
    Likes Received:
    0
    Thanks a lot
     
  6. Jim

    Jim Member

    Joined:
    Dec 7, 2014
    Messages:
    100
    Likes Received:
    0
    Thanks for Taylor.
     
  7. pinky

    pinky Well-Known Member

    Joined:
    Jun 27, 2015
    Messages:
    1,991
    Likes Received:
    100
    thank you :)
     
  8. testfront

    testfront Member

    Joined:
    Feb 7, 2017
    Messages:
    228
    Likes Received:
    11
    thanks
     
    Last edited by a moderator: Feb 9, 2017
  9. arturorl13

    arturorl13 Member

    Joined:
    Sep 16, 2016
    Messages:
    415
    Likes Received:
    14
    thank youuu
     
    Last edited by a moderator: Feb 10, 2017
  10. bakter85

    bakter85 Member

    Joined:
    Jan 29, 2017
    Messages:
    170
    Likes Received:
    8