Taylor Swift - Out Of The Woods (VEVOtv HDTV-1080i 24Mbps) Danixat-HDMania

Discussion in 'VEVOtv' started by danixat, Mar 26, 2016.

  1. danixat

    danixat Katycat ^-^ Capper V . I . P. Donor

    Joined:
    Feb 23, 2014
    Messages:
    1,144
    Likes Received:
    5,775
    [​IMG]
    [​IMG]
    [​IMG]
    [​IMG]
    Code:
    General
    ID                             : 1 (0x1)
    Complete name                  : K:\Taylor Swift - Out Of The Woods (VEVOtv HDTV-1080i 24Mbps) Danixat-HDMania.ts
    Format                         : MPEG-TS
    File size                      : 738 MiB
    Duration                       : 4mn 5s
    Overall bit rate mode          : Variable
    Overall bit rate               : 25.3 Mbps
    
    Video
    ID                             : 100 (0x64)
    Menu ID                        : 2 (0x2)
    Format                         : AVC
    Format/Info                    : Advanced Video Codec
    Format profile                 : [email protected]
    Format settings, CABAC         : Yes
    Format settings, ReFrames      : 2 frames
    Codec ID                       : 27
    Duration                       : 4mn 4s
    Bit rate mode                  : Variable
    Bit rate                       : 23.8 Mbps
    Maximum bit rate               : 30.0 Mbps
    Width                          : 1 920 pixels
    Height                         : 1 080 pixels
    Display aspect ratio           : 16:9
    Frame rate                     : 25.000 fps
    Color space                    : YUV
    Chroma subsampling             : 4:2:0
    Bit depth                      : 8 bits
    Scan type                      : Interlaced
    Bits/(Pixel*Frame)             : 0.459
    Stream size                    : 695 MiB (94%)
    
    Audio
    ID                             : 101 (0x65)
    Menu ID                        : 2 (0x2)
    Format                         : AAC
    Format/Info                    : Advanced Audio Codec
    Format version                 : Version 4
    Format profile                 : LC
    Muxing mode                    : ADTS
    Codec ID                       : 15
    Duration                       : 4mn 4s
    Bit rate mode                  : Variable
    Bit rate                       : 220 Kbps
    Channel(s)                     : 2 channels
    Channel positions              : Front: L R
    Sampling rate                  : 48.0 KHz
    Compression mode               : Lossy
    Delay relative to video        : -360ms
    Stream size                    : 6.42 MiB (1%)

    [​IMG]

    Download:
    Hidden Content:
    You must either reply or click 'Like' to see the hidden information contained here.
    CAPPED BY ME :victory:
     
    Red, skyisup, Merleawe and 10 others like this.
  2. Darkangel

    Darkangel Taylor Fan Staff Member Super Moderator Capper V . I . P. Donor

    Joined:
    Oct 7, 2013
    Messages:
    2,170
    Likes Received:
    17,140
    Thank you so much for Taylor :love::love::love:
     
  3. phantomaccount

    phantomaccount Member

    Joined:
    Nov 30, 2015
    Messages:
    179
    Likes Received:
    8
    oh my god thank you so much :hearteyes:
     
  4. z3with6pack

    z3with6pack Member

    Joined:
    Oct 11, 2015
    Messages:
    221
    Likes Received:
    5
    Thank You for Taylor!:):love:
     
  5. mario

    mario Well-Known Member

    Joined:
    Oct 7, 2013
    Messages:
    451
    Likes Received:
    825
    thank you
     
  6. GHN

    GHN Member

    Joined:
    Oct 27, 2014
    Messages:
    385
    Likes Received:
    10
    thank you
     
  7. beAst5

    beAst5 Member

    Joined:
    Mar 30, 2014
    Messages:
    197
    Likes Received:
    5
    thank you
     
  8. AIPHOS

    AIPHOS Member

    Joined:
    Dec 11, 2013
    Messages:
    138
    Likes Received:
    1
    thanks
     
  9. Mikki91

    Mikki91 Member

    Joined:
    Oct 29, 2016
    Messages:
    146
    Likes Received:
    1
    Thank you so much
     
  10. Ponius

    Ponius Member

    Joined:
    Dec 19, 2016
    Messages:
    265
    Likes Received:
    2
    Danke