Taylor Swift - Our Song [LPCM UPSCALED 1080p-Hossein Enr7que]

Discussion in 'UPSCALED' started by Hossein Enr7que, Feb 12, 2018.

  1. Hossein Enr7que

    Hossein Enr7que Enriquette . ZQUAD . XO V . I . P. Uploader

    Joined:
    May 13, 2016
    Messages:
    1,476
    Likes Received:
    5,168
    [​IMG]
    Code:
    General
    Unique ID                                : 143978355354104843692893918798335669354 (0x6C5138FBCA39EFB8A75B155ABC07746A)
    Complete name                            : C:\Hossein Enr7que\Taylor Swift - Our Song [LPCM UPSCALED 1080p-Hossein Enr7que].mkv
    Format                                   : Matroska
    Format version                           : Version 4 / Version 2
    File size                                : 424 MiB
    Duration                                 : 3 min 30 s
    Overall bit rate                         : 16.9 Mb/s
    Movie name                               : Taylor Swift - Our Song [UPSCALED 1080p-Hossein Enr7que]
    Encoded date                             : UTC 2018-02-10 13:25:28
    Writing application                      : mkvmerge v20.0.0 ('I Am The Sun') 64-bit
    Writing library                          : libebml v1.3.5 + libmatroska v1.4.8
    Attachments                              : georgia.ttf / georgiab.ttf / georgiai.ttf / georgiaz.ttf / Franklin Gothic Demi Cond.TTF / Majalle Mazar.ttf / Neirizi.ttf
    
    Video
    ID                                       : 1
    Format                                   : AVC
    Format/Info                              : Advanced Video Codec
    Format profile                           : High@L4.2
    Format settings                          : CABAC / 4 Ref Frames
    Format settings, CABAC                   : Yes
    Format settings, RefFrames               : 4 frames
    Codec ID                                 : V_MPEG4/ISO/AVC
    Duration                                 : 3 min 30 s
    Bit rate                                 : 15.0 Mb/s
    Width                                    : 1 920 pixels
    Height                                   : 1 080 pixels
    Display aspect ratio                     : 16:9
    Frame rate mode                          : Constant
    Frame rate                               : 23.976 (24000/1001) FPS
    Color space                              : YUV
    Chroma subsampling                       : 4:2:0
    Bit depth                                : 8 bits
    Scan type                                : Progressive
    Bits/(Pixel*Frame)                       : 0.302
    Stream size                              : 376 MiB (89%)
    Writing library                          : x264 core 152 r2851 ba24899
    Encoding settings                        : cabac=1 / ref=4 / deblock=1:0:0 / analyse=0x3:0x113 / me=umh / subme=10 / psy=1 / psy_rd=1.00:0.00 / mixed_ref=1 / me_range=16 / chroma_me=1 / trellis=2 / 8x8dct=1 / cqm=0 / deadzone=21,11 / fast_pskip=1 / chroma_qp_offset=-2 / threads=6 / lookahead_threads=1 / sliced_threads=0 / nr=0 / decimate=1 / interlaced=0 / bluray_compat=0 / constrained_intra=0 / bframes=16 / b_pyramid=2 / b_adapt=1 / b_bias=0 / direct=1 / weightb=1 / open_gop=0 / weightp=2 / keyint=240 / keyint_min=22 / scenecut=40 / intra_refresh=0 / rc_lookahead=40 / rc=2pass / mbtree=1 / bitrate=15000 / ratetol=1.0 / qcomp=0.60 / qpmin=0 / qpmax=69 / qpstep=4 / cplxblur=20.0 / qblur=0.5 / vbv_maxrate=45000 / vbv_bufsize=45000 / nal_hrd=none / filler=0 / ip_ratio=1.40 / aq=1:1.00
    Default                                  : Yes
    Forced                                   : No
    Color range                              : Limited
    Color primaries                          : BT.709
    Transfer characteristics                 : BT.709
    Matrix coefficients                      : BT.709
    
    Audio #1
    ID                                       : 2
    Format                                   : AAC
    Format/Info                              : Advanced Audio Codec
    Format profile                           : LC
    Codec ID                                 : A_AAC-2
    Duration                                 : 3 min 30 s
    Bit rate                                 : 327 kb/s
    Channel(s)                               : 2 channels
    Channel positions                        : Front: L R
    Sampling rate                            : 48.0 kHz
    Frame rate                               : 46.875 FPS (1024 SPF)
    Compression mode                         : Lossy
    Stream size                              : 8.21 MiB (2%)
    Default                                  : Yes
    Forced                                   : No
    
    Audio #2
    ID                                       : 3
    Format                                   : PCM
    Format settings                          : Little / Signed
    Codec ID                                 : A_PCM/INT/LIT
    Duration                                 : 3 min 30 s
    Bit rate mode                            : Constant
    Bit rate                                 : 1 536 kb/s
    Channel(s)                               : 2 channels
    Sampling rate                            : 48.0 kHz
    Frame rate                               : 32.004 FPS (1500 SPF)
    Bit depth                                : 16 bits
    Stream size                              : 38.5 MiB (9%)
    Default                                  : No
    Forced                                   : No
    Server: MEGA
    Hidden Content:
    You must either reply or click 'Like' to see the hidden information contained here.
    Play on PotPlayer or MPC-BE.:wink:

    PS: Video is clean, All of tags and credits are for subtitle, you can disable or enable it whenever you want cause it's SoftSub.
     
    Last edited: Jun 3, 2018
    victoriangirls, Pathy, Gil0 and 17 others like this.
  2. Loading...


  3. Nicolas.rodriguezswift

    Nicolas.rodriguezswift Member

    Joined:
    Mar 24, 2017
    Messages:
    130
    Likes Received:
    1
  4. plwww

    plwww Active Member

    Joined:
    May 28, 2016
    Messages:
    691
    Likes Received:
    48
    thanks
     
  5. fbwill23

    fbwill23 Member

    Joined:
    Apr 5, 2017
    Messages:
    250
    Likes Received:
    4
    thanks
     
  6. quake2

    quake2 Well-Known Member

    Joined:
    Oct 11, 2014
    Messages:
    1,710
    Likes Received:
    145
    thanks
     
  7. Tiago

    Tiago Well-Known Member

    Joined:
    Dec 7, 2013
    Messages:
    2,394
    Likes Received:
    106
    thanks
     
  8. tn5656

    tn5656 Well-Known Member

    Joined:
    Jan 20, 2017
    Messages:
    3,990
    Likes Received:
    138
    thanks a lot
     
  9. zuluka

    zuluka Well-Known Member

    Joined:
    Jul 9, 2016
    Messages:
    1,115
    Likes Received:
    33
    thanks
     
  10. MV007

    MV007 Member

    Joined:
    Aug 21, 2017
    Messages:
    149
    Likes Received:
    4
    thank you
     
  11. Bogdanius

    Bogdanius Member

    Joined:
    Nov 24, 2017
    Messages:
    150
    Likes Received:
    2
    Thanks!
     
  12. hanshermann

    hanshermann Well-Known Member Uploader

    Joined:
    Aug 24, 2016
    Messages:
    7,507
    Likes Received:
    13,292
    wahts taht
     
  13. vitalya3

    vitalya3 Well-Known Member

    Joined:
    Dec 4, 2017
    Messages:
    969
    Likes Received:
    1,055
  14. Swiftyjoezen

    Swiftyjoezen Member

    Joined:
    Feb 6, 2018
    Messages:
    51
    Likes Received:
    7
  15. wolfsbaneholly

    wolfsbaneholly Member

    Joined:
    Jan 16, 2017
    Messages:
    136
    Likes Received:
    4
  16. xnikex

    xnikex New Member

    Joined:
    Feb 24, 2018
    Messages:
    5
    Likes Received:
    0
    Thanks
     
  17. JimmySwifties

    JimmySwifties [Uploader] and [Requester]

    Joined:
    Mar 23, 2017
    Messages:
    255
    Likes Received:
    458
    thank you so muchhh
     
  18. janie27

    janie27 Member

    Joined:
    Dec 22, 2015
    Messages:
    63
    Likes Received:
    0
    thanks
     
  19. songs

    songs Member

    Joined:
    Jun 17, 2017
    Messages:
    65
    Likes Received:
    1
    thanks
     
  20. Sergio_rammar

    Sergio_rammar Member

    Joined:
    Jul 24, 2017
    Messages:
    387
    Likes Received:
    12
  21. cameltoe123

    cameltoe123 Active Member

    Joined:
    May 31, 2016
    Messages:
    571
    Likes Received:
    77
    thanks