HDTV Taylor Swift - Mine + White Horse (Dancing With The Stars) - 11.02.10 720p - VideoMan

Discussion in 'HD Live Performances' started by hanshermann, Dec 13, 2017.

  1. hanshermann

    hanshermann Well-Known Member Uploader

    Joined:
    Aug 24, 2016
    Messages:
    5,222
    Likes Received:
    4,863
    [​IMG]

    [HDTV-720p].Taylor Swift - Mine - 11.02.10 (Dancing With The Stars) - VideoMan

    General
    Complete name : [HDTV-720p].Taylor Swift - Mine - 11.02.10 (Dancing With The Stars) - VideoMan.mpg
    Format : MPEG-PS
    File size : 366 MiB
    Duration : 4 min 8 s
    Overall bit rate mode : Variable
    Overall bit rate : 12.3 Mb/s
    Movie name : DANCING WITH THE STARS
    Law rating : TV-PG (L)

    Video
    ID : 224 (0xE0)
    Format : MPEG Video
    Format version : Version 2
    Format profile : [email protected]
    Format settings, BVOP : Yes
    Format settings, Matrix : Custom
    Format settings, GOP : Variable
    Duration : 4 min 8 s
    Bit rate mode : Variable
    Bit rate : 11.7 Mb/s
    Maximum bit rate : 24.0 Mb/s
    Width : 1 280 pixels
    Height : 720 pixels
    Display aspect ratio : 16:9
    Frame rate : 59.940 (60000/1001) FPS
    Color space : YUV
    Chroma subsampling : 4:2:0
    Bit depth : 8 bits
    Scan type : Progressive
    Compression mode : Lossy
    Bits/(Pixel*Frame) : 0.212
    Time code of first frame : 00:00:00;00
    Time code source : Group of pictures header
    Stream size : 347 MiB (95%)

    Audio
    ID : 189 (0xBD)-128 (0x80)
    Format : AC-3
    Format/Info : Audio Coding 3
    Format settings, Endianness : Big
    Muxing mode : DVD-Video
    Duration : 4 min 8 s
    Bit rate mode : Constant
    Bit rate : 384 kb/s
    Channel(s) : 6 channels
    Channel positions : Front: L C R, Side: L R, LFE
    Sampling rate : 48.0 kHz
    Frame rate : 31.250 FPS (1536 spf)
    Bit depth : 16 bits
    Compression mode : Lossy
    Stream size : 11.4 MiB (3%)
    Service kind : Complete Main

    Hidden Content:
    You must either reply or click 'Like' to see the hidden information contained here.
    [​IMG]

    [HDTV-720p].Taylor Swift - White Horse - 11.02.10 (Dancing With The Stars) - VideoMan

    General
    Complete name : [HDTV-720p].Taylor Swift - White Horse - 11.02.10 (Dancing With The Stars) - VideoMan.mpg
    Format : MPEG-PS
    File size : 332 MiB
    Duration : 4 min 18 s
    Overall bit rate mode : Variable
    Overall bit rate : 10.8 Mb/s
    Movie name : DANCING WITH THE STARS
    Law rating : TV-PG (L)

    Video
    ID : 224 (0xE0)
    Format : MPEG Video
    Format version : Version 2
    Format profile : [email protected]
    Format settings, BVOP : Yes
    Format settings, Matrix : Custom
    Format settings, GOP : Variable
    Duration : 4 min 18 s
    Bit rate mode : Variable
    Bit rate : 10.2 Mb/s
    Maximum bit rate : 24.0 Mb/s
    Width : 1 280 pixels
    Height : 720 pixels
    Display aspect ratio : 16:9
    Frame rate : 59.940 (60000/1001) FPS
    Color space : YUV
    Chroma subsampling : 4:2:0
    Bit depth : 8 bits
    Scan type : Progressive
    Compression mode : Lossy
    Bits/(Pixel*Frame) : 0.184
    Time code of first frame : 00:00:00;00
    Time code source : Group of pictures header
    GOP, Open/Closed : Open
    GOP, Open/Closed of first f : Closed
    Stream size : 313 MiB (94%)

    Audio
    ID : 189 (0xBD)-128 (0x80)
    Format : AC-3
    Format/Info : Audio Coding 3
    Format settings, Endianness : Big
    Muxing mode : DVD-Video
    Duration : 4 min 18 s
    Bit rate mode : Constant
    Bit rate : 384 kb/s
    Channel(s) : 6 channels
    Channel positions : Front: L C R, Side: L R, LFE
    Sampling rate : 48.0 kHz
    Frame rate : 31.250 FPS (1536 spf)
    Bit depth : 16 bits
    Compression mode : Lossy
    Stream size : 11.8 MiB (4%)
    Service kind : Complete Main

    Hidden Content:
    You must either reply or click 'Like' to see the hidden information contained here.
     
  2. Loading...


  3. 010juninho

    010juninho Active Member

    Joined:
    Jan 16, 2016
    Messages:
    769
    Likes Received:
    26
  4. detroit1

    detroit1 Well-Known Member

    Joined:
    Jan 6, 2014
    Messages:
    2,659
    Likes Received:
    346
    thank you
     
  5. rhea

    rhea Well-Known Member

    Joined:
    Jan 6, 2014
    Messages:
    7,111
    Likes Received:
    788
    thanks
     
  6. yukides

    yukides Active Member

    Joined:
    Nov 15, 2013
    Messages:
    188
    Likes Received:
    101
    thanks
     
  7. AndrewDiceClay

    AndrewDiceClay Member

    Joined:
    Jul 7, 2015
    Messages:
    321
    Likes Received:
    21
  8. sideshow_bob

    sideshow_bob Well-Known Member

    Joined:
    Dec 20, 2013
    Messages:
    3,058
    Likes Received:
    194
    Thank you!
     
  9. zuiderheide

    zuiderheide Well-Known Member

    Joined:
    Nov 18, 2013
    Messages:
    2,192
    Likes Received:
    66
  10. apl3

    apl3 Active Member

    Joined:
    Jun 11, 2017
    Messages:
    692
    Likes Received:
    25
    thanks
     
  11. whosjessanywayew

    whosjessanywayew Member

    Joined:
    Jan 12, 2017
    Messages:
    106
    Likes Received:
    2
  12. John

    John Member

    Joined:
    Oct 30, 2013
    Messages:
    481
    Likes Received:
    4
    Thanks
     
  13. multimediafm

    multimediafm Well-Known Member Donor

    Joined:
    Mar 27, 2014
    Messages:
    11,137
    Likes Received:
    671