HDTV Taylor Swift - Love Story + Jump Then Fall (Dancing With The Stars 27.10.09) HD 720p

Discussion in 'HD Live Performances' started by hanshermann, Dec 13, 2017.

  1. hanshermann

    hanshermann Well-Known Member Uploader

    Joined:
    Aug 24, 2016
    Messages:
    5,222
    Likes Received:
    4,863
    [​IMG]

    [HDTV-720p].Taylor Swift - Love Story - 10.27.09 (Dancing With The Stars) - VideoMan

    General
    Complete name : [HDTV-720p].Taylor Swift - Love Story - 10.27.09 (Dancing With The Stars) - VideoMan.mpg
    Format : MPEG-PS
    File size : 390 MiB
    Duration : 4 min 40 s
    Overall bit rate mode : Variable
    Overall bit rate : 11.7 Mb/s
    Movie name : DANCING W/ THE STARS RESULTS
    Law rating : TV-PG (L)

    Video
    ID : 224 (0xE0)
    Format : MPEG Video
    Commercial name : HDV 720p
    Format version : Version 2
    Format profile : [email protected]
    Format settings, BVOP : Yes
    Format settings, Matrix : Custom
    Format settings, GOP : Variable
    Duration : 4 min 40 s
    Bit rate mode : Variable
    Bit rate : 11.0 Mb/s
    Maximum bit rate : 17.9 Mb/s
    Width : 1 280 pixels
    Height : 720 pixels
    Display aspect ratio : 16:9
    Frame rate : 59.940 (60000/1001) FPS
    Standard : Component
    Color space : YUV
    Chroma subsampling : 4:2:0
    Bit depth : 8 bits
    Scan type : Progressive
    Compression mode : Lossy
    Bits/(Pixel*Frame) : 0.200
    Time code of first frame : 00:00:00:00
    Time code source : Group of pictures header
    GOP, Open/Closed : Open
    GOP, Open/Closed of first f : Closed
    Stream size : 369 MiB (95%)
    Color primaries : BT.709
    Transfer characteristics : BT.709
    Matrix coefficients : BT.709

    Audio
    ID : 189 (0xBD)-128 (0x80)
    Format : AC-3
    Format/Info : Audio Coding 3
    Format settings, Endianness : Big
    Muxing mode : DVD-Video
    Duration : 4 min 40 s
    Bit rate mode : Constant
    Bit rate : 384 kb/s
    Channel(s) : 6 channels
    Channel positions : Front: L C R, Side: L R, LFE
    Sampling rate : 48.0 kHz
    Frame rate : 31.250 FPS (1536 spf)
    Bit depth : 16 bits
    Compression mode : Lossy
    Stream size : 12.8 MiB (3%)
    Service kind : Complete Main

    Hidden Content:
    You must either reply or click 'Like' to see the hidden information contained here.
    [​IMG]

    [HDTV-720p].Taylor Swift - Jump Then Fall - 10.27.09 (Dancing With The Stars) - VideoMan

    General
    Complete name : [HDTV-720p].Taylor Swift - Jump Then Fall - 10.27.09 (Dancing With The Stars) - VideoMan.mpg
    Format : MPEG-PS
    File size : 305 MiB
    Duration : 3 min 38 s
    Overall bit rate mode : Variable
    Overall bit rate : 11.7 Mb/s
    Movie name : DANCING W/ THE STARS RESULTS
    Law rating : TV-PG (L)

    Video
    ID : 224 (0xE0)
    Format : MPEG Video
    Commercial name : HDV 720p
    Format version : Version 2
    Format profile : [email protected]
    Format settings, BVOP : Yes
    Format settings, Matrix : Custom
    Format settings, GOP : M=3, N=30
    Duration : 3 min 38 s
    Bit rate mode : Variable
    Bit rate : 11.1 Mb/s
    Maximum bit rate : 17.9 Mb/s
    Width : 1 280 pixels
    Height : 720 pixels
    Display aspect ratio : 16:9
    Frame rate : 59.940 (60000/1001) FPS
    Standard : Component
    Color space : YUV
    Chroma subsampling : 4:2:0
    Bit depth : 8 bits
    Scan type : Progressive
    Compression mode : Lossy
    Bits/(Pixel*Frame) : 0.201
    Time code of first frame : 00:00:00:00
    Time code source : Group of pictures header
    GOP, Open/Closed : Open
    GOP, Open/Closed of first f : Closed
    Stream size : 289 MiB (95%)
    Color primaries : BT.709
    Transfer characteristics : BT.709
    Matrix coefficients : BT.709

    Audio
    ID : 189 (0xBD)-128 (0x80)
    Format : AC-3
    Format/Info : Audio Coding 3
    Format settings, Endianness : Big
    Muxing mode : DVD-Video
    Duration : 3 min 38 s
    Bit rate mode : Constant
    Bit rate : 384 kb/s
    Channel(s) : 6 channels
    Channel positions : Front: L C R, Side: L R, LFE
    Sampling rate : 48.0 kHz
    Frame rate : 31.250 FPS (1536 spf)
    Bit depth : 16 bits
    Compression mode : Lossy
    Stream size : 9.99 MiB (3%)
    Service kind : Complete Main

    Hidden Content:
    You must either reply or click 'Like' to see the hidden information contained here.
     
    AndrewDiceClay and rhea like this.
  2. Loading...


  3. 010juninho

    010juninho Active Member

    Joined:
    Jan 16, 2016
    Messages:
    769
    Likes Received:
    26
    THANKS!!!!!!!!
     
  4. tenfour

    tenfour Member

    Joined:
    Dec 22, 2015
    Messages:
    423
    Likes Received:
    15
    Thanks!
     
  5. rhea

    rhea Well-Known Member

    Joined:
    Jan 6, 2014
    Messages:
    7,111
    Likes Received:
    788
    thanks
     
  6. yukides

    yukides Active Member

    Joined:
    Nov 15, 2013
    Messages:
    188
    Likes Received:
    101
    thanks
     
  7. AndrewDiceClay

    AndrewDiceClay Member

    Joined:
    Jul 7, 2015
    Messages:
    321
    Likes Received:
    21
  8. zuiderheide

    zuiderheide Well-Known Member

    Joined:
    Nov 18, 2013
    Messages:
    2,192
    Likes Received:
    66
  9. apl3

    apl3 Active Member

    Joined:
    Jun 11, 2017
    Messages:
    692
    Likes Received:
    25
    thanks
     
  10. mermaid

    mermaid Member

    Joined:
    Apr 1, 2016
    Messages:
    319
    Likes Received:
    20
    thanks
     
  11. whosjessanywayew

    whosjessanywayew Member

    Joined:
    Jan 12, 2017
    Messages:
    106
    Likes Received:
    2
  12. multimediafm

    multimediafm Well-Known Member Donor

    Joined:
    Mar 27, 2014
    Messages:
    11,137
    Likes Received:
    671