Taylor Swift - Love Story (DISNEYHD-1080i-AAC2.0-Dfrazzer)-HDMania

Discussion in 'DISNEY HD' started by Dfrazzer, Jul 14, 2015.

  1. Dfrazzer

    Dfrazzer Super Moderator Staff Member Super Moderator Capper V . I . P. Donor

    Joined:
    Nov 4, 2013
    Messages:
    5,201
    Likes Received:
    11,633
    [​IMG] [​IMG] [​IMG] [​IMG] [​IMG] [​IMG] [​IMG] [​IMG]

    Code:
    General
    ID : 1 (0x1)
    Complete name : C:\Users\Dfrazzer\Desktop\Taylor Swift - Love Story Disney Channel 1080i HDMania.ts
    Format : MPEG-TS
    File size : 353 MiB
    Duration : 3mn 55s
    Overall bit rate mode : Variable
    Overall bit rate : 12.6 Mbps
    
    Video
    ID : 100 (0x64)
    Menu ID : 2 (0x2)
    Format : AVC
    Format/Info : Advanced Video Codec
    Format profile : High@L4.0
    Format settings, CABAC : Yes
    Format settings, ReFrames : 2 frames
    Codec ID : 27
    Duration : 3mn 55s
    Bit rate mode : Variable
    Bit rate : 11.8 Mbps
    Maximum bit rate : 24.0 Mbps
    Width : 1 920 pixels
    Height : 1 080 pixels
    Display aspect ratio : 16:9
    Frame rate : 25.000 fps
    Color space : YUV
    Chroma subsampling : 4:2:0
    Bit depth : 8 bits
    Scan type : Interlaced
    Scan order : Top Field First
    Bits/(Pixel*Frame) : 0.227
    Stream size : 329 MiB (93%)
    Color primaries : BT.709
    Transfer characteristics : BT.709
    Matrix coefficients : BT.709
    
    Audio
    ID : 101 (0x65)
    Menu ID : 2 (0x2)
    Format : AAC
    Format/Info : Advanced Audio Codec
    Format version : Version 4
    Format profile : LC
    Muxing mode : ADTS
    Codec ID : 15
    Duration : 3mn 54s
    Bit rate mode : Variable
    Bit rate : 220 Kbps
    Channel(s) : 2 channels
    Channel positions : Front: L R
    Sampling rate : 48.0 KHz
    Compression mode : Lossy
    Stream size : 6.16 MiB (2%)
    
    Hidden Content:
    You must reply before you can see the hidden data contained here.
    Capped by me.
     
    curg, Zanx94, auorine and 4 others like this.
  2. Loading...


  3. dgnio

    dgnio Well-Known Member Capper Uploader

    Joined:
    Jul 7, 2014
    Messages:
    1,957
    Likes Received:
    608
    thnks very very much
     
  4. rhea

    rhea Well-Known Member

    Joined:
    Jan 6, 2014
    Messages:
    7,663
    Likes Received:
    965
    thank you so much :)
     
  5. Regis

    Regis Well-Known Member

    Joined:
    Jul 14, 2015
    Messages:
    1,187
    Likes Received:
    40
    thank you so much :)
     
  6. joelh20101

    joelh20101 Well-Known Member

    Joined:
    Nov 4, 2013
    Messages:
    1,511
    Likes Received:
    159
    thanks for this
     
  7. MaggieS

    MaggieS Well-Known Member

    Joined:
    Sep 19, 2014
    Messages:
    1,059
    Likes Received:
    55
  8. Darkangel

    Darkangel Taylor Fan Staff Member Super Moderator Capper V . I . P.

    Joined:
    Oct 7, 2013
    Messages:
    2,533
    Likes Received:
    22,668
    Thanks for Taylor :)
     
  9. 江雨燃双鱼

    江雨燃双鱼 Active Member

    Joined:
    Apr 5, 2014
    Messages:
    614
    Likes Received:
    45
    thnks very very much
     
  10. Joseph

    Joseph Active Member

    Joined:
    Dec 10, 2013
    Messages:
    751
    Likes Received:
    175
    thank you
     
  11. santa321

    santa321 Well-Known Member

    Joined:
    Dec 7, 2013
    Messages:
    1,594
    Likes Received:
    60
    thank you
     
  12. Razy

    Razy Member

    Joined:
    May 30, 2015
    Messages:
    116
    Likes Received:
    1
    muchas gracias
     
  13. Crusha

    Crusha Well-Known Member Capper V . I . P.

    Joined:
    Oct 15, 2014
    Messages:
    2,358
    Likes Received:
    2,793
    thank you!!!
     
  14. jayananda

    jayananda Active Member

    Joined:
    Jan 14, 2015
    Messages:
    842
    Likes Received:
    228
    Thank You
     
  15. DETOX

    DETOX I'm so sick of this fake love ♫ ❤️ V . I . P. Uploader

    Joined:
    Feb 20, 2014
    Messages:
    4,596
    Likes Received:
    38,031
    Thank you so much!
     
  16. KallumLavigne

    KallumLavigne Well-Known Member

    Joined:
    Nov 18, 2013
    Messages:
    678
    Likes Received:
    1,357
    Thank you
     
  17. auorine

    auorine Member

    Joined:
    Nov 23, 2013
    Messages:
    56
    Likes Received:
    0
    Thanks a Lot!
     
  18. sori

    sori Member

    Joined:
    Oct 22, 2013
    Messages:
    117
    Likes Received:
    0
    Thank you so much
     
  19. sebasswift

    sebasswift Member

    Joined:
    Oct 26, 2015
    Messages:
    117
    Likes Received:
    4
    very much disneylandia
     
  20. Leonardo_1990

    Leonardo_1990 Member

    Joined:
    Nov 2, 2015
    Messages:
    114
    Likes Received:
    1
    muchas gracias
     
  21. Leonardo_1990

    Leonardo_1990 Member

    Joined:
    Nov 2, 2015
    Messages:
    114
    Likes Received:
    1
    thank you