Taylor Swift - Love Story (DISNEYHD-1080i-AAC2.0-Dfrazzer)-HDMania

Discussion in 'DISNEY HD' started by Dfrazzer, Jul 14, 2015.

  1. Dfrazzer

    Dfrazzer Super Moderator Staff Member Super Moderator Capper V . I . P. Donor

    Joined:
    Nov 4, 2013
    Messages:
    3,888
    Likes Received:
    7,702
    [​IMG] [​IMG] [​IMG] [​IMG] [​IMG] [​IMG] [​IMG] [​IMG]

    Code:
    General
    ID : 1 (0x1)
    Complete name : C:\Users\Dfrazzer\Desktop\Taylor Swift - Love Story Disney Channel 1080i HDMania.ts
    Format : MPEG-TS
    File size : 353 MiB
    Duration : 3mn 55s
    Overall bit rate mode : Variable
    Overall bit rate : 12.6 Mbps
    
    Video
    ID : 100 (0x64)
    Menu ID : 2 (0x2)
    Format : AVC
    Format/Info : Advanced Video Codec
    Format profile : High@L4.0
    Format settings, CABAC : Yes
    Format settings, ReFrames : 2 frames
    Codec ID : 27
    Duration : 3mn 55s
    Bit rate mode : Variable
    Bit rate : 11.8 Mbps
    Maximum bit rate : 24.0 Mbps
    Width : 1 920 pixels
    Height : 1 080 pixels
    Display aspect ratio : 16:9
    Frame rate : 25.000 fps
    Color space : YUV
    Chroma subsampling : 4:2:0
    Bit depth : 8 bits
    Scan type : Interlaced
    Scan order : Top Field First
    Bits/(Pixel*Frame) : 0.227
    Stream size : 329 MiB (93%)
    Color primaries : BT.709
    Transfer characteristics : BT.709
    Matrix coefficients : BT.709
    
    Audio
    ID : 101 (0x65)
    Menu ID : 2 (0x2)
    Format : AAC
    Format/Info : Advanced Audio Codec
    Format version : Version 4
    Format profile : LC
    Muxing mode : ADTS
    Codec ID : 15
    Duration : 3mn 54s
    Bit rate mode : Variable
    Bit rate : 220 Kbps
    Channel(s) : 2 channels
    Channel positions : Front: L R
    Sampling rate : 48.0 KHz
    Compression mode : Lossy
    Stream size : 6.16 MiB (2%)
    
    Hidden Content:
    You must reply before you can see the hidden data contained here.
    Capped by me.
     
  2. Loading...


  3. dgnio

    dgnio Well-Known Member

    Joined:
    Jul 7, 2014
    Messages:
    1,521
    Likes Received:
    292
    thnks very very much
     
  4. rhea

    rhea Well-Known Member

    Joined:
    Jan 6, 2014
    Messages:
    5,258
    Likes Received:
    253
    thank you so much :)
     
  5. Regis

    Regis Active Member

    Joined:
    Jul 14, 2015
    Messages:
    996
    Likes Received:
    25
    thank you so much :)
     
  6. joelh20101

    joelh20101 Well-Known Member

    Joined:
    Nov 4, 2013
    Messages:
    1,457
    Likes Received:
    132
    thanks for this
     
  7. MaggieS

    MaggieS Active Member

    Joined:
    Sep 19, 2014
    Messages:
    925
    Likes Received:
    34
  8. Darkangel

    Darkangel Taylor Fan Staff Member Super Moderator Capper V . I . P. Donor

    Joined:
    Oct 7, 2013
    Messages:
    2,198
    Likes Received:
    17,638
    Thanks for Taylor :)
     
  9. 江雨燃双鱼

    江雨燃双鱼 Active Member

    Joined:
    Apr 5, 2014
    Messages:
    585
    Likes Received:
    34
    thnks very very much
     
  10. Joseph

    Joseph Active Member

    Joined:
    Dec 10, 2013
    Messages:
    729
    Likes Received:
    146
    thank you
     
  11. santa321

    santa321 Active Member

    Joined:
    Dec 7, 2013
    Messages:
    1,178
    Likes Received:
    21
    thank you
     
  12. Razy

    Razy Member

    Joined:
    May 30, 2015
    Messages:
    57
    Likes Received:
    0
    muchas gracias
     
  13. Crusha

    Crusha Well-Known Member Capper

    Joined:
    Oct 15, 2014
    Messages:
    2,350
    Likes Received:
    2,132
    thank you!!!
     
  14. jayananda

    jayananda Member

    Joined:
    Jan 14, 2015
    Messages:
    248
    Likes Received:
    5
    Thank You
     
  15. DETOX

    DETOX Well-Known Member V . I . P. Uploader

    Joined:
    Feb 20, 2014
    Messages:
    2,721
    Likes Received:
    13,799
    Thank you so much!
     
  16. KallumLavigne

    KallumLavigne Well-Known Member

    Joined:
    Nov 18, 2013
    Messages:
    675
    Likes Received:
    1,156
    Thank you
     
  17. auorine

    auorine Member

    Joined:
    Nov 23, 2013
    Messages:
    52
    Likes Received:
    0
    Thanks a Lot!
     
  18. sori

    sori Member

    Joined:
    Oct 22, 2013
    Messages:
    106
    Likes Received:
    0
    Thank you so much
     
  19. sebasswift

    sebasswift Member

    Joined:
    Oct 26, 2015
    Messages:
    117
    Likes Received:
    4
    very much disneylandia
     
  20. Leonardo_1990

    Leonardo_1990 Member

    Joined:
    Nov 2, 2015
    Messages:
    102
    Likes Received:
    1
    muchas gracias
     
  21. Leonardo_1990

    Leonardo_1990 Member

    Joined:
    Nov 2, 2015
    Messages:
    102
    Likes Received:
    1
    thank you