Taylor Swift - Love Story (Deluxe Music HD-1080i-DD2.0)-Olgold

Discussion in 'DELUXE MUSIC HD' started by Olgold, Aug 26, 2015.

  1. Olgold

    Olgold Well-Known Member Capper

    Joined:
    Aug 19, 2015
    Messages:
    436
    Likes Received:
    1,708
    [​IMG]
    General
    Format : MPEG-TS
    File size : 202 MiB
    Duration : 3mn 53s
    Overall bit rate mode : Variable
    Overall bit rate : 7 193 Kbps

    Video
    Format : AVC
    Format/Info : Advanced Video Codec
    Format profile : [email protected]
    Format settings, CABAC : Yes
    Format settings, ReFrames : 4 frames
    Duration : 3mn 52s
    Bit rate : 6 450 Kbps
    Width : 1 280 pixels
    Height : 1 080 pixels
    Display aspect ratio : 16:9
    Frame rate : 25.000 fps
    Standard : Component
    Color space : YUV
    Chroma subsampling : 4:2:0
    Bit depth : 8 bits
    Scan type : Interlaced
    Scan order : Top Field First
    Bits/(Pixel*Frame) : 0.187
    Stream size : 179 MiB (89%)
    Color range : Limited

    Audio
    Format : AC-3
    Format/Info : Audio Coding 3
    Mode extension : CM (complete main)
    Format settings, Endianness : Big
    Duration : 3mn 54s
    Bit rate mode : Constant
    Bit rate : 384 Kbps
    Channel(s) : 2 channels
    Channel positions : Front: L R
    Sampling rate : 48.0 KHz
    Compression mode : Lossy
    Delay relative to video : -310ms
    Stream size : 10.7 MiB (5%)
    Language : German
    Language, more info : Clean effects
    Hidden Content:
    You must reply before you can see the hidden data contained here.
     
    enzogyn, joelh20101, rhea and 3 others like this.
  2. tiemcanxien2

    tiemcanxien2 Member

    Joined:
    Oct 7, 2013
    Messages:
    71
    Likes Received:
    27
    thank you so much
     
  3. Woozle

    Woozle Member

    Joined:
    Nov 18, 2013
    Messages:
    185
    Likes Received:
    2
    thank you! Saw this dress last weekend at the Grammy Museum.
     
  4. Zatimi

    Zatimi Active Member

    Joined:
    Aug 27, 2014
    Messages:
    743
    Likes Received:
    142
    thanks a million
     
  5. hungquocphan

    hungquocphan Active Member

    Joined:
    Nov 1, 2013
    Messages:
    623
    Likes Received:
    33
    thank for share
     
  6. Joseph

    Joseph Active Member

    Joined:
    Dec 10, 2013
    Messages:
    748
    Likes Received:
    168
    thank you
     
  7. nickiexclusive

    nickiexclusive Video Maniac V . I . P. Uploader

    Joined:
    Sep 23, 2014
    Messages:
    2,385
    Likes Received:
    10,300
     
  8. Kenny Sun

    Kenny Sun Member

    Joined:
    Oct 8, 2013
    Messages:
    180
    Likes Received:
    20
    thank you
     
  9. MaggieS

    MaggieS Well-Known Member

    Joined:
    Sep 19, 2014
    Messages:
    1,046
    Likes Received:
    53
  10. 江雨燃双鱼

    江雨燃双鱼 Active Member

    Joined:
    Apr 5, 2014
    Messages:
    613
    Likes Received:
    39
  11. Crusha

    Crusha Well-Known Member Capper V . I . P.

    Joined:
    Oct 15, 2014
    Messages:
    2,358
    Likes Received:
    2,650
    thank you
     
  12. rhea

    rhea Well-Known Member

    Joined:
    Jan 6, 2014
    Messages:
    6,956
    Likes Received:
    755
    thank you so much!
     
  13. joelh20101

    joelh20101 Well-Known Member

    Joined:
    Nov 4, 2013
    Messages:
    1,488
    Likes Received:
    154
    thanks for this
     
  14. jayananda

    jayananda Active Member

    Joined:
    Jan 14, 2015
    Messages:
    581
    Likes Received:
    172
    Thank You
     
  15. thankstome

    thankstome Well-Known Member

    Joined:
    Feb 6, 2014
    Messages:
    860
    Likes Received:
    1,193
    Thank You
     
  16. sori

    sori Member

    Joined:
    Oct 22, 2013
    Messages:
    117
    Likes Received:
    0
    Thank you
     
  17. Himperios

    Himperios Member

    Joined:
    Oct 11, 2015
    Messages:
    286
    Likes Received:
    18
    good
     
  18. umisea

    umisea Member

    Joined:
    Mar 14, 2014
    Messages:
    107
    Likes Received:
    2
    Thanks a lot
     
  19. faz

    faz Member

    Joined:
    Jan 9, 2014
    Messages:
    273
    Likes Received:
    2
    Thank you.............
     
  20. jnetow

    jnetow New Member

    Joined:
    Dec 20, 2015
    Messages:
    28
    Likes Received:
    0
    thanks