Taylor Swift - Love Story (Deluxe Music HD-1080i-DD2.0)-Olgold

Discussion in 'DELUXE MUSIC HD' started by Olgold, Aug 26, 2015.

  1. Olgold

    Olgold Well-Known Member Capper

    Joined:
    Aug 19, 2015
    Messages:
    386
    Likes Received:
    1,303
    [​IMG]
    General
    Format : MPEG-TS
    File size : 202 MiB
    Duration : 3mn 53s
    Overall bit rate mode : Variable
    Overall bit rate : 7 193 Kbps

    Video
    Format : AVC
    Format/Info : Advanced Video Codec
    Format profile : [email protected]
    Format settings, CABAC : Yes
    Format settings, ReFrames : 4 frames
    Duration : 3mn 52s
    Bit rate : 6 450 Kbps
    Width : 1 280 pixels
    Height : 1 080 pixels
    Display aspect ratio : 16:9
    Frame rate : 25.000 fps
    Standard : Component
    Color space : YUV
    Chroma subsampling : 4:2:0
    Bit depth : 8 bits
    Scan type : Interlaced
    Scan order : Top Field First
    Bits/(Pixel*Frame) : 0.187
    Stream size : 179 MiB (89%)
    Color range : Limited

    Audio
    Format : AC-3
    Format/Info : Audio Coding 3
    Mode extension : CM (complete main)
    Format settings, Endianness : Big
    Duration : 3mn 54s
    Bit rate mode : Constant
    Bit rate : 384 Kbps
    Channel(s) : 2 channels
    Channel positions : Front: L R
    Sampling rate : 48.0 KHz
    Compression mode : Lossy
    Delay relative to video : -310ms
    Stream size : 10.7 MiB (5%)
    Language : German
    Language, more info : Clean effects
    Hidden Content:
    You must reply before you can see the hidden data contained here.
     
    enzogyn, joelh20101, rhea and 3 others like this.
  2. tiemcanxien2

    tiemcanxien2 Member

    Joined:
    Oct 7, 2013
    Messages:
    71
    Likes Received:
    23
    thank you so much
     
  3. Woozle

    Woozle Member

    Joined:
    Nov 18, 2013
    Messages:
    177
    Likes Received:
    2
    thank you! Saw this dress last weekend at the Grammy Museum.
     
  4. Zatimi

    Zatimi Active Member

    Joined:
    Aug 27, 2014
    Messages:
    589
    Likes Received:
    57
    thanks a million
     
  5. hungquocphan

    hungquocphan Member

    Joined:
    Nov 1, 2013
    Messages:
    433
    Likes Received:
    9
    thank for share
     
  6. Joseph

    Joseph Active Member

    Joined:
    Dec 10, 2013
    Messages:
    726
    Likes Received:
    144
    thank you
     
  7. abdi

    abdi Well-Known Member Uploader

    Joined:
    Sep 23, 2014
    Messages:
    1,595
    Likes Received:
    2,559
     
  8. Kenny Sun

    Kenny Sun Member

    Joined:
    Oct 8, 2013
    Messages:
    130
    Likes Received:
    18
    thank you
     
  9. MaggieS

    MaggieS Active Member

    Joined:
    Sep 19, 2014
    Messages:
    922
    Likes Received:
    33
  10. 江雨燃双鱼

    江雨燃双鱼 Active Member

    Joined:
    Apr 5, 2014
    Messages:
    578
    Likes Received:
    34
  11. Crusha

    Crusha Well-Known Member Capper

    Joined:
    Oct 15, 2014
    Messages:
    2,349
    Likes Received:
    2,063
    thank you
     
  12. rhea

    rhea Well-Known Member

    Joined:
    Jan 6, 2014
    Messages:
    5,193
    Likes Received:
    250
    thank you so much!
     
  13. joelh20101

    joelh20101 Well-Known Member

    Joined:
    Nov 4, 2013
    Messages:
    1,455
    Likes Received:
    131
    thanks for this
     
  14. jayananda

    jayananda Member

    Joined:
    Jan 14, 2015
    Messages:
    248
    Likes Received:
    5
    Thank You
     
  15. thankstome

    thankstome Well-Known Member

    Joined:
    Feb 6, 2014
    Messages:
    754
    Likes Received:
    915
    Thank You
     
  16. sori

    sori Member

    Joined:
    Oct 22, 2013
    Messages:
    106
    Likes Received:
    0
    Thank you
     
  17. Himperios

    Himperios Member

    Joined:
    Oct 11, 2015
    Messages:
    282
    Likes Received:
    14
    good
     
  18. umisea

    umisea Member

    Joined:
    Mar 14, 2014
    Messages:
    88
    Likes Received:
    2
    Thanks a lot
     
  19. faz

    faz Member

    Joined:
    Jan 9, 2014
    Messages:
    196
    Likes Received:
    1
    Thank you.............
     
  20. jnetow

    jnetow New Member

    Joined:
    Dec 20, 2015
    Messages:
    21
    Likes Received:
    0
    thanks