Taylor Swift - Live From JetBlue Terminal 5 1080p WEB-CAP AAC2.0 AVC-TrollHD

Discussion in 'SD Live Performances' started by Ransel, Oct 27, 2013.

  1. Ransel

    Ransel Founder Staff Member AdMiN Uploader

    Joined:
    Oct 1, 2013
    Messages:
    1,314
    Likes Received:
    19,222
    [​IMG]

    Setlist:
    1. Speak Now
    2. Back To December
    3. Mine

    Code:
          Complete name : Taylor Swift - Live From JetBlue Terminal 5 1080p WEB-CAP AAC2.0 AVC-TrollHD.mp4
          Format : MPEG-4
          Format profile : Base Media / Version 2
          Codec ID : mp42
          File size : 429 MiB
          Duration : 12mn 58s
          Overall bit rate mode : Variable
          Overall bit rate : 4 624 Kbps
          Encoded date : UTC 2011-01-25 22:30:20
          Tagged date : UTC 2011-01-25 22:30:20
          gsst : 0
          gstd : 778390
          gssd : BADC20842HH1296274930707802
          gshh : v18.lscache4.c.youtube.com
      Video #1
          ID : 1
          Format : AVC
          Format/Info : Advanced Video Codec
          Format profile : High@L4.0
          Format settings, CABAC : Yes
          Format settings, ReFrames : 1 frame
          Codec ID : avc1
          Codec ID/Info : Advanced Video Coding
          Duration : 12mn 58s
          Bit rate : 4 491 Kbps
          Maximum bit rate : 9 670 Kbps
          Width : 1 920 pixels
          Height : 1 080 pixels
          Display aspect ratio : 16:9
          Frame rate mode : Variable
          Frame rate : 23.976 fps
          Minimum frame rate : 17.241 fps
          Maximum frame rate : 24.390 fps
          Color space : YUV
          Chroma subsampling : 4:2:0
          Bit depth : 8 bits
          Scan type : Progressive
          Bits/(Pixel*Frame) : 0.090
          Stream size : 417 MiB (97%)
          Tagged date : UTC 2011-01-25 22:30:35
      Audio #2
          ID : 2
          Format : AAC
          Format/Info : Advanced Audio Codec
          Format profile : LC
          Codec ID : 40
          Duration : 12mn 58s
          Bit rate mode : Variable
          Bit rate : 127 Kbps
          Maximum bit rate : 173 Kbps
          Channel(s) : 2 channels
          Channel positions : Front: L R
          Sampling rate : 44.1 KHz
          Compression mode : Lossy
          Stream size : 11.8 MiB (3%)
          Title : (C) 2007 Google Inc. v08.13.2007.
          Encoded date : UTC 2011-01-25 22:30:29
          Tagged date : UTC 2011-01-25 22:30:35


    Download:
    Hidden Content:
    You must either reply or click 'Like' to see the hidden information contained here.


    Password: sharemania.net

    Capper: TrollHD
     
  2. Loading...


  3. BoogyWoogy

    BoogyWoogy Well-Known Member Donor

    Joined:
    Jan 9, 2014
    Messages:
    1,177
    Likes Received:
    6,984
    Thank you !
     
  4. santa321

    santa321 Well-Known Member

    Joined:
    Dec 7, 2013
    Messages:
    1,794
    Likes Received:
    66
    thanks
     
  5. diego

    diego New Member

    Joined:
    Jan 31, 2014
    Messages:
    4
    Likes Received:
    1
    cool
     
  6. Raoni Martins

    Raoni Martins New Member

    Joined:
    Dec 12, 2014
    Messages:
    21
    Likes Received:
    0
  7. Steve Hendrix

    Steve Hendrix New Member

    Joined:
    Dec 14, 2014
    Messages:
    5
    Likes Received:
    0
    1000 thanks
     
  8. Red

    Red Well-Known Member

    Joined:
    Oct 3, 2013
    Messages:
    267
    Likes Received:
    760
    thanks
     
  9. hanshermann

    hanshermann Well-Known Member Uploader

    Joined:
    Aug 24, 2016
    Messages:
    7,580
    Likes Received:
    14,440
    wahts taht
     
  10. whosjessanywayew

    whosjessanywayew Member

    Joined:
    Jan 12, 2017
    Messages:
    174
    Likes Received:
    7
  11. fbwill23

    fbwill23 Member

    Joined:
    Apr 5, 2017
    Messages:
    256
    Likes Received:
    5
  12. highheat80

    highheat80 New Member

    Joined:
    Jan 12, 2019
    Messages:
    8
    Likes Received:
    0
    Thanks!!!!!!!!!!!!!!!!!!!!