SDTV Taylor Swift - Live At The Revival - 2007

Discussion in 'SD Live Performances' started by KaiKawaii, Dec 17, 2017.

  1. KaiKawaii

    KaiKawaii Well-Known Member Uploader

    Joined:
    Jun 1, 2017
    Messages:
    539
    Likes Received:
    880
    [​IMG]
    [​IMG]
    Code:
    General
    Unique ID                      : 194018968780687185312362757124484634402 (0x91F6B1B57A639433A3EF3E7C9B261722)
    Complete name                  : D:\Taylor Swift live at the Revival - 2007 - 432p.mkv
    Format                         : Matroska
    Format version                 : Version 1
    File size                      : 283 MiB
    Duration                       : 22 min 29 s
    Overall bit rate               : 1 759 kb/s
    Encoded date                   : UTC 2009-02-28 11:20:07
    Writing application            : mkvmerge v2.4.2 ('Oh My God') built on Jan 18 2009 17:30:28
    Writing library                : libebml v0.7.7 + libmatroska v0.8.1
    
    Video
    ID                             : 1
    Format                         : AVC
    Format/Info                    : Advanced Video Codec
    Format profile                 : High@L3
    Format settings, CABAC         : Yes
    Format settings, RefFrames     : 3 frames
    Codec ID                       : V_MPEG4/ISO/AVC
    Duration                       : 22 min 29 s
    Bit rate                       : 1 500 kb/s
    Width                          : 720 pixels
    Height                         : 432 pixels
    Display aspect ratio           : 5:3
    Frame rate mode                : Constant
    Frame rate                     : 29.970 (30000/1001) FPS
    Color space                    : YUV
    Chroma subsampling             : 4:2:0
    Bit depth                      : 8 bits
    Scan type                      : Progressive
    Bits/(Pixel*Frame)             : 0.161
    Stream size                    : 236 MiB (83%)
    Writing library                : x264 core 66 r1114M a933a3e
    Encoding settings              : cabac=1 / ref=3 / deblock=1:-1:-1 / analyse=0x3:0x133 / me=hex / subme=5 / psy_rd=0.0:0.0 / mixed_ref=0 / me_range=16 / chroma_me=1 / trellis=0 / 8x8dct=1 / cqm=0 / deadzone=21,11 / chroma_qp_offset=0 / threads=3 / nr=0 / decimate=1 / mbaff=0 / bframes=16 / b_pyramid=0 / b_adapt=1 / b_bias=0 / direct=3 / wpredb=1 / keyint=250 / keyint_min=25 / scenecut=40(pre) / rc=2pass / bitrate=1500 / ratetol=1.0 / qcomp=0.60 / qpmin=10 / qpmax=51 / qpstep=4 / cplxblur=20.0 / qblur=0.5 / ip_ratio=1.40 / pb_ratio=1.30 / aq=1:1.00
    Default                        : Yes
    Forced                         : No
    
    Audio
    ID                             : 2
    Format                         : AC-3
    Format/Info                    : Audio Coding 3
    Format settings, Endianness    : Big
    Codec ID                       : A_AC3
    Duration                       : 22 min 29 s
    Bit rate mode                  : Constant
    Bit rate                       : 256 kb/s
    Channel(s)                     : 2 channels
    Channel positions              : Front: L R
    Sampling rate                  : 48.0 kHz
    Frame rate                     : 31.250 FPS (1536 SPF)
    Bit depth                      : 16 bits
    Compression mode               : Lossy
    Stream size                    : 41.2 MiB (15%)
    Service kind                   : Complete Main
    Default                        : Yes
    Forced                         : No
    Hidden Content:
    You must reply before you can see the hidden data contained here.
    Credits to the original capper :)
    PS: Picture updated on May 22nd 2018.
     
    Last edited: May 22, 2018
    Gil0, johymbim, bahare7373 and 5 others like this.
  2. Loading...


  3. P1956

    P1956 Active Member

    Joined:
    Aug 18, 2014
    Messages:
    539
    Likes Received:
    59
    thanks
     
  4. templed5

    templed5 Member

    Joined:
    Jan 14, 2017
    Messages:
    290
    Likes Received:
    7
    thanks
     
  5. hungquocphan

    hungquocphan Active Member

    Joined:
    Nov 1, 2013
    Messages:
    749
    Likes Received:
    36
  6. Smythy

    Smythy Has small Taylor Swift collection...

    Joined:
    Mar 15, 2017
    Messages:
    259
    Likes Received:
    235
    thank you
     
  7. abcde54321

    abcde54321 Active Member

    Joined:
    Apr 6, 2014
    Messages:
    937
    Likes Received:
    27
    hum muh
     
  8. AndrewDiceClay

    AndrewDiceClay Member

    Joined:
    Jul 7, 2015
    Messages:
    373
    Likes Received:
    22
  9. TaylorFan13

    TaylorFan13 Well-Known Member Capper

    Joined:
    Oct 19, 2014
    Messages:
    433
    Likes Received:
    1,882
    Thank you...
     
  10. Gizmo234

    Gizmo234 Member

    Joined:
    Oct 21, 2015
    Messages:
    198
    Likes Received:
    6
    Thank you!
     
  11. hanshermann

    hanshermann Well-Known Member Uploader

    Joined:
    Aug 24, 2016
    Messages:
    7,018
    Likes Received:
    11,690
    wahts taht
     
  12. 010juninho

    010juninho Well-Known Member

    Joined:
    Jan 16, 2016
    Messages:
    1,114
    Likes Received:
    52
  13. ron

    ron Well-Known Member

    Joined:
    Apr 4, 2014
    Messages:
    621
    Likes Received:
    349
    Thank you !
     
  14. grossersport

    grossersport Member

    Joined:
    Dec 19, 2015
    Messages:
    256
    Likes Received:
    12
    Thank you for Taylor!
     
  15. AsyrafGrande

    AsyrafGrande Active Member

    Joined:
    May 25, 2015
    Messages:
    435
    Likes Received:
    52
  16. badonkadonka

    badonkadonka New Member

    Joined:
    Nov 23, 2017
    Messages:
    10
    Likes Received:
    1
    Thank you so much
     
  17. wolfsbaneholly

    wolfsbaneholly Member

    Joined:
    Jan 16, 2017
    Messages:
    135
    Likes Received:
    4
  18. naixa

    naixa Active Member

    Joined:
    Dec 19, 2017
    Messages:
    119
    Likes Received:
    90
    Thank you
     
  19. kiiwii

    kiiwii Member

    Joined:
    Oct 10, 2013
    Messages:
    379
    Likes Received:
    10
    Thank you...
     
  20. Tiago

    Tiago Well-Known Member

    Joined:
    Dec 7, 2013
    Messages:
    2,306
    Likes Received:
    85
    thanks
     
  21. exterminador

    exterminador Well-Known Member

    Joined:
    Jul 3, 2016
    Messages:
    2,443
    Likes Received:
    208