Taylor Swift Feat. Kendrick Lamar - Bad Blood (TRACEURBANHD-1080i-MPA2.0-Djodjara)-HDMania

Discussion in 'TRACE URBAN HD' started by Djodjara, Dec 11, 2015.

  1. Djodjara

    Djodjara Gwen Fan Capper

    Joined:
    Sep 6, 2014
    Messages:
    653
    Likes Received:
    1,074
    Taylor Swift - Bad Blood (feat. Kendrick Lamar) (TRACE HD-1080i-Djodjara)-HDMania


    [​IMG]
    [​IMG]


    General:
    ID : 1 (0x1)
    Format : MPEG-TS
    File size : 194 MiB
    Duration : 3mn 17s
    Overall bit rate mode : Variable
    Overall bit rate : 8 223 Kbps

    Video:
    ID : 1353 (0x549)
    Menu ID : 1 (0x1)
    Format : AVC
    Format/Info : Advanced Video Codec
    Format profile : [email protected]
    Format settings, CABAC : Yes
    Format settings, ReFrames : 4 frames
    Codec ID : 27
    Duration : 3mn 17s
    Bit rate : 7 623 Kbps
    Width : 1 920 pixels
    Height : 1 080 pixels
    Display aspect ratio : 16:9
    Frame rate : 25.000 fps
    Standard : Component
    Color space : YUV
    Chroma subsampling : 4:2:0
    Bit depth : 8 bits
    Scan type : Interlaced
    Scan order : Top Field First
    Bits/(Pixel*Frame) : 0.147
    Stream size : 180 MiB (93%)
    Color range : Limited
    Color primaries : BT.709
    Transfer characteristics : BT.709
    Matrix coefficients : BT.709

    Audio:
    ID : 3374 (0xD2E)
    Menu ID : 1 (0x1)
    Format : MPEG Audio
    Format version : Version 1
    Format profile : Layer 2
    Codec ID : 3
    Duration : 3mn 17s
    Bit rate mode : Constant
    Bit rate : 192 Kbps
    Channel(s) : 2 channels
    Sampling rate : 48.0 KHz
    Compression mode : Lossy
    Stream size : 4.53 MiB (2%)
    Language : English

    Hidden Content:
    You must reply before you can see the hidden data contained here.
     
  2. Loading...


  3. rhea

    rhea Well-Known Member

    Joined:
    Jan 6, 2014
    Messages:
    5,277
    Likes Received:
    253
    thank you so much! :)
     
  4. Dreamer

    Dreamer ♫ It's Britney Bitch ♫ Capper Uploader

    Joined:
    Dec 4, 2014
    Messages:
    2,230
    Likes Received:
    1,958
    Thank you so much! :)
     
  5. hungquocphan

    hungquocphan Member

    Joined:
    Nov 1, 2013
    Messages:
    433
    Likes Received:
    9
    thank for share
     
  6. joelh20101

    joelh20101 Well-Known Member

    Joined:
    Nov 4, 2013
    Messages:
    1,458
    Likes Received:
    134
    thanks so much
     
  7. Crusha

    Crusha Well-Known Member Capper

    Joined:
    Oct 15, 2014
    Messages:
    2,350
    Likes Received:
    2,137
    thank you :)
     
  8. Joseph

    Joseph Active Member

    Joined:
    Dec 10, 2013
    Messages:
    729
    Likes Received:
    148
    thank you
     
  9. limonato

    limonato Member

    Joined:
    Dec 1, 2014
    Messages:
    180
    Likes Received:
    0
    thank you
     
  10. 江雨燃双鱼

    江雨燃双鱼 Active Member

    Joined:
    Apr 5, 2014
    Messages:
    585
    Likes Received:
    34
  11. ytyh

    ytyh Member

    Joined:
    Mar 30, 2014
    Messages:
    432
    Likes Received:
    4
    Thank you!
     
  12. maurohachen

    maurohachen Member

    Joined:
    Feb 24, 2015
    Messages:
    390
    Likes Received:
    14
    thank you
     
  13. hanshermann

    hanshermann Active Member

    Joined:
    Aug 24, 2016
    Messages:
    1,368
    Likes Received:
    3
    wahts taht
     
  14. richard1997

    richard1997 Member

    Joined:
    Jan 22, 2017
    Messages:
    142
    Likes Received:
    0
    thank you