Taylor Swift Feat. Kendrick Lamar - Bad Blood (MUCHHD-1080i-DD2.0-AmazonBoy)

Discussion in 'MUCH HD' started by DETOX, Jan 15, 2016.

  1. DETOX

    DETOX Well-Known Member V . I . P. Uploader

    Joined:
    Feb 20, 2014
    Messages:
    2,586
    Likes Received:
    12,128
    [​IMG]
    Code:
    General
    ID                                       : 16 (0x10)
    Complete name                            : Taylor Swift Feat. Kendrick Lamar - Bad Blood (MUCHHD-1080i-DD2.0-AmazonBoy).ts
    Format                                   : MPEG-TS
    File size                                : 835 MiB
    Duration                                 : 3mn 54s
    Overall bit rate mode                    : Variable
    Overall bit rate                         : 29.9 Mbps
    
    Video
    ID                                       : 256 (0x100)
    Menu ID                                  : 1 (0x1)
    Format                                   : MPEG Video
    Format version                           : Version 2
    Format profile                           : [email protected]
    Format settings, BVOP                    : No
    Format settings, Matrix                  : Custom
    Format settings, GOP                     : N=1
    Format settings, picture structure       : Frame
    Codec ID                                 : 2
    Duration                                 : 3mn 54s
    Bit rate mode                            : Variable
    Bit rate                                 : 28.0 Mbps
    Maximum bit rate                         : 32.0 Mbps
    Width                                    : 1 920 pixels
    Height                                   : 1 080 pixels
    Display aspect ratio                     : 16:9
    Frame rate                               : 29.970 fps
    Standard                                 : Component
    Color space                              : YUV
    Chroma subsampling                       : 4:2:0
    Bit depth                                : 8 bits
    Scan type                                : Interlaced
    Scan order                               : Top Field First
    Compression mode                         : Lossy
    Bits/(Pixel*Frame)                       : 0.450
    Time code of first frame                 : 00:00:00:00
    Time code source                         : Group of pictures header
    GOP, Open/Closed                         : Closed
    Stream size                              : 781 MiB (94%)
    Writing library                          : (dvd5: Mar 19 2015)
    Color primaries                          : BT.709
    Transfer characteristics                 : BT.709
    Matrix coefficients                      : BT.709
    
    Audio
    ID                                       : 257 (0x101)
    Menu ID                                  : 1 (0x1)
    Format                                   : AC-3
    Format/Info                              : Audio Coding 3
    Mode extension                           : CM (complete main)
    Format settings, Endianness              : Big
    Codec ID                                 : 129
    Duration                                 : 3mn 54s
    Bit rate mode                            : Constant
    Bit rate                                 : 448 Kbps
    Channel(s)                               : 2 channels
    Channel positions                        : Front: L R
    Sampling rate                            : 48.0 KHz
    Bit depth                                : 16 bits
    Compression mode                         : Lossy
    Stream size                              : 12.5 MiB (1%)
    Server: cloud.mail.ru
    Hidden Content:
    You must reply before you can see the hidden data contained here.
     
    sinshin and meisam.sch like this.
  2. Loading...


  3. Woozle

    Woozle Member

    Joined:
    Nov 18, 2013
    Messages:
    177
    Likes Received:
    2
    thank you
     
  4. drulo

    drulo New Member

    Joined:
    Jan 25, 2016
    Messages:
    23
    Likes Received:
    0
    GRAXias
     
  5. drulo

    drulo New Member

    Joined:
    Jan 25, 2016
    Messages:
    23
    Likes Received:
    0
    Thank for share
     
  6. Zeeh

    Zeeh Member

    Joined:
    Mar 20, 2015
    Messages:
    327
    Likes Received:
    4
    I know we got problems *#...
     
  7. Evens01

    Evens01 Member

    Joined:
    Feb 5, 2016
    Messages:
    145
    Likes Received:
    2
    thanks
     
  8. meisam.sch

    meisam.sch Well-Known Member

    Joined:
    Jan 18, 2016
    Messages:
    1,051
    Likes Received:
    40
  9. changvang

    changvang New Member

    Joined:
    Mar 9, 2016
    Messages:
    20
    Likes Received:
    0
  10. voin

    voin Member

    Joined:
    Nov 1, 2015
    Messages:
    30
    Likes Received:
    0
    thanks
     
  11. ancor

    ancor Member

    Joined:
    Dec 28, 2014
    Messages:
    111
    Likes Received:
    1
    Thank you.
     
  12. Grande44

    Grande44 Member

    Joined:
    Jul 19, 2016
    Messages:
    102
    Likes Received:
    3
    thanks man
     
  13. Blunder

    Blunder Member

    Joined:
    Mar 27, 2016
    Messages:
    328
    Likes Received:
    3
    thanks
     
  14. revilo18

    revilo18 Well-Known Member

    Joined:
    May 26, 2016
    Messages:
    1,256
    Likes Received:
    50
    THANKKK
     
  15. sinshin

    sinshin Member

    Joined:
    Jan 27, 2015
    Messages:
    66
    Likes Received:
    34
    thanks
     
  16. Razy

    Razy Member

    Joined:
    May 30, 2015
    Messages:
    54
    Likes Received:
    0
    mercie
     
  17. hanshermann

    hanshermann Active Member

    Joined:
    Aug 24, 2016
    Messages:
    1,237
    Likes Received:
    1
    wahts taht