CC Taylor Swift - Blank Space (VH1HD-1080i-DD2.0-CELOBRAZiL) [CC]-HDMania

Discussion in 'VH1 HD' started by DETOX, May 2, 2016.

  1. DETOX

    DETOX ST☆RLIGHT ❤️ VIXX V . I . P. Uploader

    Joined:
    Feb 20, 2014
    Messages:
    4,430
    Likes Received:
    35,677
    [​IMG]
    Code:
    General
    ID                                       : 1 (0x1)
    Complete name                            : Taylor Swift - Blank Space (VH1HD-1080i-DD2.0-CELOBRAZiL) [CC]-HDMania.ts
    Format                                   : MPEG-TS
    File size                                : 169 MiB
    Duration                                 : 3mn 54s
    Overall bit rate mode                    : Variable
    Overall bit rate                         : 6 040 Kbps
    
    Video
    ID                                       : 5408 (0x1520)
    Menu ID                                  : 625 (0x271)
    Format                                   : AVC
    Format/Info                              : Advanced Video Codec
    Format profile                           : High@L4
    Format settings, CABAC                   : Yes
    Format settings, ReFrames                : 3 frames
    Codec ID                                 : 27
    Duration                                 : 3mn 54s
    Bit rate                                 : 5 353 Kbps
    Width                                    : 1 920 pixels
    Height                                   : 1 080 pixels
    Display aspect ratio                     : 16:9
    Frame rate                               : 29.970 fps
    Color space                              : YUV
    Chroma subsampling                       : 4:2:0
    Bit depth                                : 8 bits
    Scan type                                : MBAFF
    Scan order                               : Top Field First
    Bits/(Pixel*Frame)                       : 0.086
    Stream size                              : 150 MiB (89%)
    
    Audio
    ID                                       : 5409 (0x1521)
    Menu ID                                  : 625 (0x271)
    Format                                   : AC-3
    Format/Info                              : Audio Coding 3
    Mode extension                           : CM (complete main)
    Format settings, Endianness              : Big
    Codec ID                                 : 129
    Duration                                 : 3mn 54s
    Bit rate mode                            : Constant
    Bit rate                                 : 384 Kbps
    Channel(s)                               : 2 channels
    Channel positions                        : Front: L R
    Sampling rate                            : 48.0 KHz
    Bit depth                                : 16 bits
    Compression mode                         : Lossy
    Delay relative to video                  : -33ms
    Stream size                              : 10.7 MiB (6%)
    Language                                 : English
    
    Text #1
    ID                                       : 5408 (0x1520)-CC1
    Menu ID                                  : 625 (0x271)
    Format                                   : EIA-608
    Muxing mode                              : SCTE 128 / DTVCC Transport
    Muxing mode, more info                   : Muxed in Video #1
    Duration                                 : 3mn 54s
    Bit rate mode                            : Constant
    Stream size                              : 0.00 Byte (0%)
    
    Text #2
    ID                                       : 5408 (0x1520)-1
    Menu ID                                  : 625 (0x271)
    Format                                   : EIA-708
    Muxing mode                              : SCTE 128 / DTVCC Transport
    Muxing mode, more info                   : Muxed in Video #1
    Duration                                 : 3mn 54s
    Bit rate mode                            : Constant
    Stream size                              : 0.00 Byte (0%)
    Server: pogoplug
    Hidden Content:
    You must reply before you can see the hidden data contained here.
     
    rhea and jose luis like this.
  2. Loading...


  3. GHN

    GHN Member

    Joined:
    Oct 27, 2014
    Messages:
    540
    Likes Received:
    15
    Thank you.
     
  4. Ray031

    Ray031 Member

    Joined:
    Jul 11, 2015
    Messages:
    460
    Likes Received:
    20
    Thank You
     
  5. jose luis

    jose luis Member

    Joined:
    Nov 25, 2013
    Messages:
    359
    Likes Received:
    17
    thanks !
     
  6. rhea

    rhea Well-Known Member

    Joined:
    Jan 6, 2014
    Messages:
    7,530
    Likes Received:
    901
    thanks
     
  7. hanshermann

    hanshermann Well-Known Member Uploader

    Joined:
    Aug 24, 2016
    Messages:
    5,759
    Likes Received:
    7,220
    wahts taht
     
  8. Frogman12

    Frogman12 Member

    Joined:
    Mar 28, 2017
    Messages:
    124
    Likes Received:
    9
  9. John fresco

    John fresco :v

    Joined:
    Apr 23, 2017
    Messages:
    179
    Likes Received:
    47
    Thank u
     
  10. Karla Swift

    Karla Swift New Member

    Joined:
    Jun 12, 2017
    Messages:
    7
    Likes Received:
    3
    Thank you!
     
  11. Joseph

    Joseph Active Member

    Joined:
    Dec 10, 2013
    Messages:
    749
    Likes Received:
    172
    thanks
     
  12. allynat

    allynat Member

    Joined:
    Dec 25, 2017
    Messages:
    651
    Likes Received:
    11