Taylor Swift - Blank Space MTV Live HD 1080i HDMania

Discussion in 'MTV LIVE HD' started by Dfrazzer, Jun 16, 2015.

  1. Dfrazzer

    Dfrazzer Super Moderator Staff Member Super Moderator Capper V . I . P. Donor

    Joined:
    Nov 4, 2013
    Messages:
    3,888
    Likes Received:
    7,709
    [​IMG] [​IMG] [​IMG] [​IMG] [​IMG] [​IMG] [​IMG] [​IMG] [​IMG] [​IMG]

    Code:
    General
    ID : 1 (0x1)
    Complete name : C:\Users\Dfrazzer\Desktop\Taylor Swift - Blank Space MTV Live HD 1080i HDMania.ts
    Format : MPEG-TS
    File size : 350 MiB
    Duration : 3mn 54s
    Overall bit rate mode : Variable
    Overall bit rate : 12.5 Mbps
    
    Video
    ID : 100 (0x64)
    Menu ID : 2 (0x2)
    Format : AVC
    Format/Info : Advanced Video Codec
    Format profile : High@L4.0
    Format settings, CABAC : Yes
    Format settings, ReFrames : 2 frames
    Codec ID : 27
    Duration : 3mn 54s
    Bit rate mode : Variable
    Bit rate : 11.7 Mbps
    Maximum bit rate : 24.0 Mbps
    Width : 1 920 pixels
    Height : 1 080 pixels
    Display aspect ratio : 16:9
    Frame rate : 25.000 fps
    Color space : YUV
    Chroma subsampling : 4:2:0
    Bit depth : 8 bits
    Scan type : Interlaced
    Scan order : Top Field First
    Bits/(Pixel*Frame) : 0.225
    Stream size : 326 MiB (93%)
    Color primaries : BT.709
    Transfer characteristics : BT.709
    Matrix coefficients : BT.709
    
    Audio
    ID : 101 (0x65)
    Menu ID : 2 (0x2)
    Format : AAC
    Format/Info : Advanced Audio Codec
    Format version : Version 4
    Format profile : LC
    Muxing mode : ADTS
    Codec ID : 15
    Duration : 3mn 54s
    Bit rate mode : Variable
    Bit rate : 220 Kbps
    Channel(s) : 2 channels
    Channel positions : Front: L R
    Sampling rate : 48.0 KHz
    Compression mode : Lossy
    Delay relative to video : -80ms
    Stream size : 6.14 MiB (2%)
    
    Hidden Content:
    You must reply before you can see the hidden data contained here.
    Capped by me.
     
  2. Loading...


  3. Grailen

    Grailen Well-Known Member

    Joined:
    Oct 8, 2013
    Messages:
    529
    Likes Received:
    467
    thank you
     
  4. 777josem

    777josem Well-Known Member Uploader

    Joined:
    Sep 1, 2014
    Messages:
    2,423
    Likes Received:
    1,293
    Thank you so much for Taylor :love:
     
  5. Darkangel

    Darkangel Taylor Fan Staff Member Super Moderator Capper V . I . P. Donor

    Joined:
    Oct 7, 2013
    Messages:
    2,198
    Likes Received:
    17,649
    Thanks for Taylor :)
     
  6. joelh20101

    joelh20101 Well-Known Member

    Joined:
    Nov 4, 2013
    Messages:
    1,457
    Likes Received:
    132
    thanks for this
     
  7. franklele

    franklele Well-Known Member

    Joined:
    Nov 11, 2013
    Messages:
    1,650
    Likes Received:
    69
    thank you very much
     
  8. rhea

    rhea Well-Known Member

    Joined:
    Jan 6, 2014
    Messages:
    5,258
    Likes Received:
    253
    thank you so much! :)
     
  9. benja

    benja Active Member

    Joined:
    Jan 8, 2014
    Messages:
    980
    Likes Received:
    55
    Thank you
     
  10. sagor

    sagor Member

    Joined:
    Mar 24, 2014
    Messages:
    56
    Likes Received:
    1
    Nice share....
     
  11. Joseph

    Joseph Active Member

    Joined:
    Dec 10, 2013
    Messages:
    729
    Likes Received:
    147
    thank you
     
  12. Harry

    Harry Member

    Joined:
    Mar 4, 2014
    Messages:
    289
    Likes Received:
    3
    Thank You so much! :)
     
  13. Zatimi

    Zatimi Active Member

    Joined:
    Aug 27, 2014
    Messages:
    597
    Likes Received:
    61
    thanks so much
     
  14. jay lo

    jay lo Member

    Joined:
    Feb 26, 2015
    Messages:
    43
    Likes Received:
    0
    thanks !!!!! so much
     
  15. Regis

    Regis Active Member

    Joined:
    Jul 14, 2015
    Messages:
    997
    Likes Received:
    25
    thanks !!!!! so much
     
  16. Dreamer

    Dreamer ♫ It's Britney Bitch ♫ Capper Uploader

    Joined:
    Dec 4, 2014
    Messages:
    2,209
    Likes Received:
    1,924
    Thank you for sharing
     
  17. furkan

    furkan Member

    Joined:
    Oct 9, 2015
    Messages:
    194
    Likes Received:
    3
    thnks youuuuu
     
  18. sebasswift

    sebasswift Member

    Joined:
    Oct 26, 2015
    Messages:
    117
    Likes Received:
    4
    STYLE OF TAY
     
  19. ytyh

    ytyh Member

    Joined:
    Mar 30, 2014
    Messages:
    432
    Likes Received:
    4
    Thank you
     
  20. Razy

    Razy Member

    Joined:
    May 30, 2015
    Messages:
    57
    Likes Received:
    0
    thank you
     
  21. talata

    talata Member

    Joined:
    Nov 14, 2013
    Messages:
    255
    Likes Received:
    5
    thanks!