Taylor Swift - Black Space (Multishow.HD.DD5.1)-Crusha

Discussion in 'MULTISHOW HD' started by Crusha, Jun 23, 2015.

  1. Crusha

    Crusha Well-Known Member Capper V . I . P.

    Joined:
    Oct 15, 2014
    Messages:
    2,358
    Likes Received:
    2,621
    [​IMG]
    [​IMG]
    [​IMG]

    General
    ID : 1 (0x1)
    Complete name : Taylor Swift - Black Space (Multishow.HD.DD5.1)-Crusha.ts
    Format : MPEG-TS
    File size : 84.8 MiB
    Duration : 3mn 47s
    Overall bit rate mode : Variable
    Overall bit rate : 3 130 Kbps

    Video
    ID : 2593 (0xA21)
    Menu ID : 2542 (0x9EE)
    Format : AVC
    Format/Info : Advanced Video Codec
    Format profile : [email protected]
    Format settings, CABAC : Yes
    Format settings, ReFrames : 4 frames
    Codec ID : 27
    Duration : 3mn 47s
    Bit rate : 2 588 Kbps
    Width : 1 920 pixels
    Height : 1 080 pixels
    Display aspect ratio : 16:9
    Frame rate : 29.970 fps
    Standard : Component
    Color space : YUV
    Chroma subsampling : 4:2:0
    Bit depth : 8 bits
    Scan type : MBAFF
    Scan order : Top Field First
    Bits/(Pixel*Frame) : 0.042
    Stream size : 70.1 MiB (83%)
    Color primaries : BT.709
    Transfer characteristics : BT.709
    Matrix coefficients : BT.709
    Color range : Limited

    Audio
    ID : 3593 (0xE09)
    Menu ID : 2542 (0x9EE)
    Format : AC-3
    Format/Info : Audio Coding 3
    Mode extension : CM (complete main)
    Format settings, Endianness : Big
    Codec ID : 6
    Duration : 3mn 47s
    Bit rate mode : Constant
    Bit rate : 384 Kbps
    Channel(s) : 6 channels
    Channel positions : Front: L C R, Side: L R, LFE
    Sampling rate : 48.0 KHz
    Bit depth : 16 bits
    Compression mode : Lossy
    Stream size : 10.4 MiB (12%)
    Language : English

    Hidden Content:
    You must either reply or click 'Like' to see the hidden information contained here.
    Password: crusha

    Cap by Me :)
     
  2. Loading...


  3. ElephantSoup

    ElephantSoup Member

    Joined:
    Feb 6, 2015
    Messages:
    76
    Likes Received:
    0
  4. Joseph

    Joseph Active Member

    Joined:
    Dec 10, 2013
    Messages:
    747
    Likes Received:
    167
    thank you
     
  5. Grailen

    Grailen Well-Known Member

    Joined:
    Oct 8, 2013
    Messages:
    602
    Likes Received:
    765
    thank you
     
  6. Danielcha

    Danielcha Member

    Joined:
    Sep 20, 2014
    Messages:
    98
    Likes Received:
    0
    THANKS SO MUCH
     
  7. ialmostdo

    ialmostdo Member

    Joined:
    Feb 21, 2014
    Messages:
    49
    Likes Received:
    1
  8. kbabrrrr

    kbabrrrr New Member

    Joined:
    May 30, 2015
    Messages:
    27
    Likes Received:
    1
    thanks
     
  9. daniloo augusto

    daniloo augusto Member

    Joined:
    Jan 17, 2017
    Messages:
    132
    Likes Received:
    3
  10. hanshermann

    hanshermann Well-Known Member Uploader

    Joined:
    Aug 24, 2016
    Messages:
    4,819
    Likes Received:
    2,969
    wahts taht
     
  11. edsonavril33

    edsonavril33 Member

    Joined:
    Jun 17, 2017
    Messages:
    261
    Likes Received:
    12
    Muito Obrigado!