HDTV Taylor Swift - Begin Again - CMA Awards 2012 720p HDTV 24 Mbps DD5.1 H.264-oki

Discussion in 'HD Live Performances' started by hanshermann, Dec 7, 2017.

  1. hanshermann

    hanshermann Well-Known Member Uploader

    Joined:
    Aug 24, 2016
    Messages:
    7,245
    Likes Received:
    12,552
    [​IMG]

    Taylor Swift - Begin Again - CMA Awards 2012 720p HDTV 24 Mbps DD5.1 H.264-oki

    Code:
    General
    ID                          : 1 (0x1)
    Complete name               : Taylor Swift - Begin Again - CMA Awards 2012 720p HDTV 24 Mbps DD5.1 H.264-oki.ts
    Format                      : MPEG-TS
    File size                   : 820 MiB
    Duration                    : 4 min 27 s
    Overall bit rate mode       : Variable
    Overall bit rate            : 25.7 Mb/s
    
    Video
    ID                          : 4113 (0x1011)
    Menu ID                     : 1 (0x1)
    Format                      : AVC
    Format/Info                 : Advanced Video Codec
    Format profile              : High@L4.1
    Format settings, CABAC      : Yes
    Format settings, ReFrames   : 6 frames
    Codec ID                    : 27
    Duration                    : 4 min 27 s
    Bit rate mode               : Variable
    Bit rate                    : 23.8 Mb/s
    Maximum bit rate            : 40.0 Mb/s
    Width                       : 1 280 pixels
    Height                      : 720 pixels
    Display aspect ratio        : 16:9
    Frame rate                  : 59.940 (60000/1001) FPS
    Color space                 : YUV
    Chroma subsampling          : 4:2:0
    Bit depth                   : 8 bits
    Scan type                   : Progressive
    Bits/(Pixel*Frame)          : 0.430
    Stream size                 : 759 MiB (93%)
    Color range                 : Limited
    Color primaries             : BT.709
    Transfer characteristics    : BT.709
    Matrix coefficients         : BT.709
    
    Audio
    ID                          : 4352 (0x1100)
    Menu ID                     : 1 (0x1)
    Format                      : AC-3
    Format/Info                 : Audio Coding 3
    Format settings, Endianness : Big
    Codec ID                    : 129
    Duration                    : 4 min 27 s
    Bit rate mode               : Constant
    Bit rate                    : 640 kb/s
    Channel(s)                  : 6 channels
    Channel positions           : Front: L C R, Side: L R, LFE
    Sampling rate               : 48.0 kHz
    Frame rate                  : 31.250 FPS (1536 spf)
    Bit depth                   : 16 bits
    Compression mode            : Lossy
    Stream size                 : 20.4 MiB (2%)
    Language                    : English
    Service kind                : Complete Main
    
    Hidden Content:
    You must either reply or click 'Like' to see the hidden information contained here.
     
    Last edited: Apr 14, 2018
  2. Loading...


  3. templed5

    templed5 Member

    Joined:
    Jan 14, 2017
    Messages:
    301
    Likes Received:
    7
    Thanks
     
  4. exterminador

    exterminador Well-Known Member

    Joined:
    Jul 3, 2016
    Messages:
    2,505
    Likes Received:
    212
  5. theclimb

    theclimb Well-Known Member

    Joined:
    Dec 16, 2014
    Messages:
    1,362
    Likes Received:
    200
    Thanks
     
  6. Pavulon

    Pavulon Well-Known Member Donor

    Joined:
    Mar 22, 2016
    Messages:
    4,643
    Likes Received:
    1,017
    thanks
     
  7. 12wurzel

    12wurzel Active Member

    Joined:
    Oct 16, 2016
    Messages:
    543
    Likes Received:
    37
    thanks
     
  8. Nytro

    Nytro Member

    Joined:
    Nov 25, 2015
    Messages:
    265
    Likes Received:
    24
    thanbks man
     
  9. AndrewDiceClay

    AndrewDiceClay Member

    Joined:
    Jul 7, 2015
    Messages:
    374
    Likes Received:
    22
    Thank you
     
  10. rhea

    rhea Well-Known Member

    Joined:
    Jan 6, 2014
    Messages:
    8,296
    Likes Received:
    1,185
    thank you :)
     
  11. KaiKawaii

    KaiKawaii Well-Known Member Uploader

    Joined:
    Jun 1, 2017
    Messages:
    561
    Likes Received:
    936
    thanks
     
  12. apl3

    apl3 Well-Known Member

    Joined:
    Jun 11, 2017
    Messages:
    1,214
    Likes Received:
    35
    thanks
     
  13. heikeeduardo

    heikeeduardo Member

    Joined:
    Nov 12, 2016
    Messages:
    168
    Likes Received:
    5
    thnak you so much
     
  14. kaijoo

    kaijoo Member

    Joined:
    Apr 7, 2014
    Messages:
    228
    Likes Received:
    1
    thanks
     
  15. rushkumao7

    rushkumao7 New Member

    Joined:
    Dec 13, 2017
    Messages:
    19
    Likes Received:
    3
  16. mermaid

    mermaid Active Member

    Joined:
    Apr 1, 2016
    Messages:
    348
    Likes Received:
    25
    thanks
     
  17. onehandfeel

    onehandfeel Member

    Joined:
    Dec 16, 2013
    Messages:
    283
    Likes Received:
    15
    thank you
     
  18. imb4dliar

    imb4dliar Member

    Joined:
    Mar 12, 2018
    Messages:
    53
    Likes Received:
    1
    thank u
     
  19. totp

    totp Member

    Joined:
    Nov 22, 2016
    Messages:
    51
    Likes Received:
    2
    thanks
     
  20. St1g

    St1g Member

    Joined:
    Dec 22, 2015
    Messages:
    87
    Likes Received:
    0
    Thanks
     
  21. Phamtuan

    Phamtuan Member

    Joined:
    Nov 5, 2018
    Messages:
    125
    Likes Received:
    4
    Thanks