HDTV Taylor Swift - Begin Again - CMA Awards 2012 720p HDTV 24 Mbps DD5.1 H.264-oki

Discussion in 'HD Live Performances' started by hanshermann, Dec 7, 2017.

  1. hanshermann

    hanshermann Well-Known Member Uploader

    Joined:
    Aug 24, 2016
    Messages:
    5,037
    Likes Received:
    3,799
    [​IMG]

    Taylor Swift - Begin Again - CMA Awards 2012 720p HDTV 24 Mbps DD5.1 H.264-oki

    Code:
    General
    ID                          : 1 (0x1)
    Complete name               : Taylor Swift - Begin Again - CMA Awards 2012 720p HDTV 24 Mbps DD5.1 H.264-oki.ts
    Format                      : MPEG-TS
    File size                   : 820 MiB
    Duration                    : 4 min 27 s
    Overall bit rate mode       : Variable
    Overall bit rate            : 25.7 Mb/s
    
    Video
    ID                          : 4113 (0x1011)
    Menu ID                     : 1 (0x1)
    Format                      : AVC
    Format/Info                 : Advanced Video Codec
    Format profile              : [email protected]
    Format settings, CABAC      : Yes
    Format settings, ReFrames   : 6 frames
    Codec ID                    : 27
    Duration                    : 4 min 27 s
    Bit rate mode               : Variable
    Bit rate                    : 23.8 Mb/s
    Maximum bit rate            : 40.0 Mb/s
    Width                       : 1 280 pixels
    Height                      : 720 pixels
    Display aspect ratio        : 16:9
    Frame rate                  : 59.940 (60000/1001) FPS
    Color space                 : YUV
    Chroma subsampling          : 4:2:0
    Bit depth                   : 8 bits
    Scan type                   : Progressive
    Bits/(Pixel*Frame)          : 0.430
    Stream size                 : 759 MiB (93%)
    Color range                 : Limited
    Color primaries             : BT.709
    Transfer characteristics    : BT.709
    Matrix coefficients         : BT.709
    
    Audio
    ID                          : 4352 (0x1100)
    Menu ID                     : 1 (0x1)
    Format                      : AC-3
    Format/Info                 : Audio Coding 3
    Format settings, Endianness : Big
    Codec ID                    : 129
    Duration                    : 4 min 27 s
    Bit rate mode               : Constant
    Bit rate                    : 640 kb/s
    Channel(s)                  : 6 channels
    Channel positions           : Front: L C R, Side: L R, LFE
    Sampling rate               : 48.0 kHz
    Frame rate                  : 31.250 FPS (1536 spf)
    Bit depth                   : 16 bits
    Compression mode            : Lossy
    Stream size                 : 20.4 MiB (2%)
    Language                    : English
    Service kind                : Complete Main
    
    Hidden Content:
    You must either reply or click 'Like' to see the hidden information contained here.
     
  2. Loading...


  3. templed5

    templed5 Member

    Joined:
    Jan 14, 2017
    Messages:
    92
    Likes Received:
    4
    Thanks
     
  4. exterminador

    exterminador Well-Known Member

    Joined:
    Jul 3, 2016
    Messages:
    1,741
    Likes Received:
    158
  5. theclimb

    theclimb Active Member

    Joined:
    Dec 16, 2014
    Messages:
    749
    Likes Received:
    132
    Thanks
     
  6. Pavulon

    Pavulon Well-Known Member

    Joined:
    Mar 22, 2016
    Messages:
    3,464
    Likes Received:
    402
    thanks
     
  7. 12wurzel

    12wurzel Member

    Joined:
    Oct 16, 2016
    Messages:
    249
    Likes Received:
    22
    thanks
     
  8. Nytro

    Nytro Member

    Joined:
    Nov 25, 2015
    Messages:
    185
    Likes Received:
    23
    thanbks man
     
  9. AndrewDiceClay

    AndrewDiceClay Member

    Joined:
    Jul 7, 2015
    Messages:
    297
    Likes Received:
    21
    Thank you
     
  10. rhea

    rhea Well-Known Member

    Joined:
    Jan 6, 2014
    Messages:
    6,945
    Likes Received:
    755
    thank you :)
     
  11. KaiKawaii

    KaiKawaii Active Member

    Joined:
    Jun 1, 2017
    Messages:
    221
    Likes Received:
    82
    thanks
     
  12. apl3

    apl3 Member

    Joined:
    Jun 11, 2017
    Messages:
    562
    Likes Received:
    20
  13. heikeeduardo

    heikeeduardo Member

    Joined:
    Nov 12, 2016
    Messages:
    103
    Likes Received:
    4
    thnak you so much
     
  14. kaijoo

    kaijoo Member

    Joined:
    Apr 7, 2014
    Messages:
    208
    Likes Received:
    1
  15. giespinosa

    giespinosa Member

    Joined:
    Jul 2, 2017
    Messages:
    179
    Likes Received:
    4
  16. rushkumao7

    rushkumao7 New Member

    Joined:
    Wednesday
    Messages:
    18
    Likes Received:
    1