HDTV Taylor Swift - Begin Again (46th Annual CMA Awards 01.11.2012) 720p

Discussion in 'HD Live Performances' started by hanshermann, Dec 7, 2017.

  1. hanshermann

    hanshermann Well-Known Member Uploader

    Joined:
    Aug 24, 2016
    Messages:
    5,037
    Likes Received:
    3,799
    [​IMG]

    Taylor Swift - Begin Again (46th Annual CMA Awards 01.11.2012) 720p

    Code:
    General
    ID                          : 1 (0x1)
    Complete name               : Taylor Swift - Begin Again (46th Annual CMA Awards 01.11.2012).ts
    Format                      : MPEG-TS
    File size                   : 352 MiB
    Duration                    : 4 min 30 s
    Overall bit rate mode       : Variable
    Overall bit rate            : 10.9 Mb/s
    Movie name                  : THE 46TH ANNUAL CMA AWARDS
    Law rating                  : TV-PG (DLS)
    
    Video
    ID                          : 525 (0x20D)
    Menu ID                     : 1 (0x1)
    Format                      : MPEG Video
    Format version              : Version 2
    Format profile              : [email protected]
    Format settings, BVOP       : Yes
    Format settings, Matrix     : Custom
    Format settings, GOP        : M=3, N=30
    Codec ID                    : 2
    Duration                    : 4 min 30 s
    Bit rate mode               : Variable
    Bit rate                    : 9 988 kb/s
    Maximum bit rate            : 38.8 Mb/s
    Width                       : 1 280 pixels
    Height                      : 720 pixels
    Display aspect ratio        : 16:9
    Active Format Description   : Full frame 16:9 image
    Frame rate                  : 59.940 (60000/1001) FPS
    Standard                    : Component
    Color space                 : YUV
    Chroma subsampling          : 4:2:0
    Bit depth                   : 8 bits
    Scan type                   : Progressive
    Compression mode            : Lossy
    Bits/(Pixel*Frame)          : 0.181
    Time code of first frame    : 00:00:12;17
    Time code source            : Group of pictures header
    GOP, Open/Closed            : Open
    Stream size                 : 322 MiB (91%)
    Color primaries             : BT.709
    Transfer characteristics    : BT.709
    Matrix coefficients         : BT.709
    
    Audio
    ID                          : 523 (0x20B)
    Menu ID                     : 1 (0x1)
    Format                      : AC-3
    Format/Info                 : Audio Coding 3
    Format settings, Endianness : Big
    Codec ID                    : 129
    Duration                    : 4 min 30 s
    Bit rate mode               : Constant
    Bit rate                    : 384 kb/s
    Channel(s)                  : 6 channels
    Channel positions           : Front: L C R, Side: L R, LFE
    Sampling rate               : 48.0 kHz
    Frame rate                  : 31.250 FPS (1536 spf)
    Bit depth                   : 16 bits
    Compression mode            : Lossy
    Delay relative to video     : -372 ms
    Stream size                 : 12.4 MiB (4%)
    Language                    : English
    Service kind                : Complete Main
    
    Hidden Content:
    You must either reply or click 'Like' to see the hidden information contained here.
     
    rhea, AndrewDiceClay and pardi like this.
  2. Loading...


  3. pardi

    pardi Member

    Joined:
    Oct 10, 2017
    Messages:
    122
    Likes Received:
    0
    thanks!
     
  4. 12wurzel

    12wurzel Member

    Joined:
    Oct 16, 2016
    Messages:
    249
    Likes Received:
    22
    thanks
     
  5. AndrewDiceClay

    AndrewDiceClay Member

    Joined:
    Jul 7, 2015
    Messages:
    297
    Likes Received:
    21
    Thank you
     
  6. rhea

    rhea Well-Known Member

    Joined:
    Jan 6, 2014
    Messages:
    6,945
    Likes Received:
    755
    thanks
     
  7. apl3

    apl3 Member

    Joined:
    Jun 11, 2017
    Messages:
    562
    Likes Received:
    20