Taylor Swift - Bad Blood (Multishow.HD.1080i.DD5.1).-Crusha

Discussion in 'MULTISHOW HD' started by Crusha, May 18, 2015.

  1. Crusha

    Crusha Well-Known Member Capper V . I . P.

    Joined:
    Oct 15, 2014
    Messages:
    2,357
    Likes Received:
    2,607
    [​IMG]

    General
    ID : 1 (0x1)
    Complete name : C:\Users\SONGOKU\Pictures\Taylor Swift - Bad Blood (Multishow.HD.1080i.DD5.1).-Crusha.ts
    Format : MPEG-TS
    File size : 97.2 MiB
    Duration : 3mn 51s
    Overall bit rate mode : Variable
    Overall bit rate : 3 515 Kbps

    Video
    ID : 2593 (0xA21)
    Menu ID : 2542 (0x9EE)
    Format : AVC
    Format/Info : Advanced Video Codec
    Format profile : [email protected]
    Format settings, CABAC : Yes
    Format settings, ReFrames : 4 frames
    Codec ID : 27
    Duration : 3mn 51s
    Bit rate : 2 954 Kbps
    Width : 1 920 pixels
    Height : 1 080 pixels
    Display aspect ratio : 16:9
    Frame rate : 29.970 fps
    Standard : Component
    Color space : YUV
    Chroma subsampling : 4:2:0
    Bit depth : 8 bits
    Scan type : MBAFF
    Scan order : Top Field First
    Bits/(Pixel*Frame) : 0.048
    Stream size : 81.6 MiB (84%)
    Color primaries : BT.709
    Transfer characteristics : BT.709
    Matrix coefficients : BT.709
    Color range : Limited

    Audio
    ID : 3593 (0xE09)
    Menu ID : 2542 (0x9EE)
    Format : AC-3
    Format/Info : Audio Coding 3
    Mode extension : CM (complete main)
    Format settings, Endianness : Big
    Codec ID : 6
    Duration : 3mn 51s
    Bit rate mode : Constant
    Bit rate : 384 Kbps
    Channel(s) : 6 channels
    Channel positions : Front: L C R, Side: L R, LFE
    Sampling rate : 48.0 KHz
    Bit depth : 16 bits
    Compression mode : Lossy
    Stream size : 10.6 MiB (11%)
    Language : English

    Hidden Content:
    You must either reply or click 'Like' to see the hidden information contained here.
    Password: crusha

    Cap By Me :)
     
  2. Loading...


  3. Joseph

    Joseph Active Member

    Joined:
    Dec 10, 2013
    Messages:
    747
    Likes Received:
    167
    thank you very much! :D
     
  4. MaggieS

    MaggieS Well-Known Member

    Joined:
    Sep 19, 2014
    Messages:
    1,038
    Likes Received:
    50
    tnx u
     
  5. MCTR

    MCTR Active Member

    Joined:
    Feb 23, 2014
    Messages:
    295
    Likes Received:
    41
    Thanks You
     
  6. cdubouloz

    cdubouloz New Member

    Joined:
    Feb 1, 2015
    Messages:
    21
    Likes Received:
    0
    Thanks Crusha!
     
  7. multimediafm

    multimediafm Well-Known Member Donor

    Joined:
    Mar 27, 2014
    Messages:
    10,264
    Likes Received:
    617
    Thanks :)
    Taylor Swift - Bad Blood (Multishow.HD.1080i.DD5.1).-Crusha
     
  8. Zatimi

    Zatimi Active Member

    Joined:
    Aug 27, 2014
    Messages:
    742
    Likes Received:
    142
    thanks a million
     
  9. lukierrywhere

    lukierrywhere Member

    Joined:
    May 1, 2015
    Messages:
    170
    Likes Received:
    4
  10. Pedro Correia

    Pedro Correia Active Member

    Joined:
    Apr 17, 2014
    Messages:
    998
    Likes Received:
    105
    [​IMG]

    General
    ID : 1 (0x1)
    Complete name : C:\Users\SONGOKU\Pictures\Taylor Swift - Bad Blood (Multishow.HD.1080i.DD5.1).-Crusha.ts
    Format : MPEG-TS
    File size : 97.2 MiB
    Duration : 3mn 51s
    Overall bit rate mode : Variable
    Overall bit rate : 3 515 Kbps

    Video
    ID : 2593 (0xA21)
    Menu ID : 2542 (0x9EE)
    Format : AVC
    Format/Info : Advanced Video Codec
    Format profile : [email protected]
    Format settings, CABAC : Yes
    Format settings, ReFrames : 4 frames
    Codec ID : 27
    Duration : 3mn 51s
    Bit rate : 2 954 Kbps
    Width : 1 920 pixels
    Height : 1 080 pixels
    Display aspect ratio : 16:9
    Frame rate : 29.970 fps
    Standard : Component
    Color space : YUV
    Chroma subsampling : 4:2:0
    Bit depth : 8 bits
    Scan type : MBAFF
    Scan order : Top Field First
    Bits/(Pixel*Frame) : 0.048
    Stream size : 81.6 MiB (84%)
    Color primaries : BT.709
    Transfer characteristics : BT.709
    Matrix coefficients : BT.709
    Color range : Limited

    Audio
    ID : 3593 (0xE09)
    Menu ID : 2542 (0x9EE)
    Format : AC-3
    Format/Info : Audio Coding 3
    Mode extension : CM (complete main)
    Format settings, Endianness : Big
    Codec ID : 6
    Duration : 3mn 51s
    Bit rate mode : Constant
    Bit rate : 384 Kbps
    Channel(s) : 6 channels
    Channel positions : Front: L C R, Side: L R, LFE
    Sampling rate : 48.0 KHz
    Bit depth : 16 bits
    Compression mode : Lossy
    Stream size : 10.6 MiB (11%)
    Language : English

    ***Hidden content cannot be quoted.***

    Password: crusha

    Cap By Me :)[/QUOTE]
     
    maurohachen likes this.
  11. maurohachen

    maurohachen Member

    Joined:
    Feb 24, 2015
    Messages:
    439
    Likes Received:
    23
    bad blood
     
  12. maurohachen

    maurohachen Member

    Joined:
    Feb 24, 2015
    Messages:
    439
    Likes Received:
    23
    gracias amiigos
     
  13. Grande44

    Grande44 Member

    Joined:
    Jul 19, 2016
    Messages:
    222
    Likes Received:
    3
    i think i gonna love this