Taylor Swift - Back To December (GACHD) 1080i H.264 DD2.0-HDMania

Discussion in 'GAC HD' started by RGF72K, Jul 10, 2015.

  1. RGF72K

    RGF72K ????? Staff Member Super Moderator

    Joined:
    Oct 1, 2013
    Messages:
    1,020
    Likes Received:
    13,854
    [​IMG]

    General
    ID : 1 (0x1)
    Complete name : Taylor Swift - Back To December (GACHD) 1080i H.264 DD2.0-HDMania.ts
    Format : MPEG-TS
    File size : 513 MiB
    Duration : 5mn 2s
    Overall bit rate mode : Variable
    Overall bit rate : 14.3 Mbps

    Video
    ID : 4113 (0x1011)
    Menu ID : 1 (0x1)
    Format : AVC
    Format/Info : Advanced Video Codec
    Format profile : [email protected]
    Format settings, CABAC : Yes
    Format settings, ReFrames : 4 frames
    Codec ID : 27
    Duration : 5mn 2s
    Bit rate mode : Variable
    Bit rate : 13.2 Mbps
    Maximum bit rate : 20.0 Mbps
    Width : 1 920 pixels
    Height : 1 080 pixels
    Display aspect ratio : 16:9
    Frame rate : 29.970 fps
    Color space : YUV
    Chroma subsampling : 4:2:0
    Bit depth : 8 bits
    Scan type : Interlaced
    Scan order : Top Field First
    Bits/(Pixel*Frame) : 0.212
    Stream size : 474 MiB (92%)
    Color primaries : BT.709
    Transfer characteristics : BT.709
    Matrix coefficients : BT.709
    Color range : Limited

    Audio
    ID : 4352 (0x1100)
    Menu ID : 1 (0x1)
    Format : AC-3
    Format/Info : Audio Coding 3
    Mode extension : CM (complete main)
    Format settings, Endianness : Big
    Codec ID : 129
    Duration : 5mn 2s
    Bit rate mode : Constant
    Bit rate : 384 Kbps
    Channel(s) : 2 channels
    Channel positions : Front: L R
    Sampling rate : 48.0 KHz
    Bit depth : 16 bits
    Compression mode : Lossy
    Stream size : 13.8 MiB (3%)
    Language : English


    Download:
    Hidden Content:
    You must either reply or click 'Like' to see the hidden information contained here.

    Capped By Me :victory:
     
    Last edited: Aug 4, 2015
  2. joelh20101

    joelh20101 Well-Known Member

    Joined:
    Nov 4, 2013
    Messages:
    1,455
    Likes Received:
    132
    thaks for this
     
  3. Darkangel

    Darkangel Taylor Fan Staff Member Super Moderator Capper V . I . P. Donor

    Joined:
    Oct 7, 2013
    Messages:
    2,173
    Likes Received:
    17,221
    Thank you so much for Taylor :)
     
  4. dgnio

    dgnio Well-Known Member

    Joined:
    Jul 7, 2014
    Messages:
    1,478
    Likes Received:
    284
    thnks very very much!!!1
     
  5. KallumLavigne

    KallumLavigne Well-Known Member

    Joined:
    Nov 18, 2013
    Messages:
    675
    Likes Received:
    1,142
    Thank you
     
  6. MaggieS

    MaggieS Active Member

    Joined:
    Sep 19, 2014
    Messages:
    922
    Likes Received:
    33
  7. rhea

    rhea Well-Known Member

    Joined:
    Jan 6, 2014
    Messages:
    5,193
    Likes Received:
    250
    so nice :)
    thank you so much!
     
  8. Zatimi

    Zatimi Active Member

    Joined:
    Aug 27, 2014
    Messages:
    589
    Likes Received:
    57
    thanks a million, this is my favorite song
     
  9. Regis

    Regis Member

    Joined:
    Jul 14, 2015
    Messages:
    963
    Likes Received:
    23
    thank you so much!:D
     
  10. Joseph

    Joseph Active Member

    Joined:
    Dec 10, 2013
    Messages:
    726
    Likes Received:
    144
    thank you
     
  11. santa321

    santa321 Active Member

    Joined:
    Dec 7, 2013
    Messages:
    1,164
    Likes Received:
    21
    thank you
     
  12. multimediafm

    multimediafm Well-Known Member Donor

    Joined:
    Mar 27, 2014
    Messages:
    8,058
    Likes Received:
    320
    Thanks :love:
    Taylor Swift - Back To December (GACHD) 1080i H.264 DD2.0-HDMania
     
  13. 江雨燃双鱼

    江雨燃双鱼 Active Member

    Joined:
    Apr 5, 2014
    Messages:
    585
    Likes Received:
    34
  14. yangnima

    yangnima New Member

    Joined:
    May 28, 2014
    Messages:
    22
    Likes Received:
    2
    thanks for sharing
     
  15. islesya

    islesya New Member

    Joined:
    Oct 1, 2015
    Messages:
    11
    Likes Received:
    0
    thanks alot
     
  16. swifty1987

    swifty1987 Member

    Joined:
    Dec 19, 2015
    Messages:
    65
    Likes Received:
    2
  17. misstiss

    misstiss Member

    Joined:
    Apr 24, 2014
    Messages:
    69
    Likes Received:
    6
    thank you very much
     
  18. z3with6pack

    z3with6pack Member

    Joined:
    Oct 11, 2015
    Messages:
    222
    Likes Received:
    5
    Thank You so much for Taylor!:love:
     
  19. celio

    celio Member

    Joined:
    Oct 29, 2013
    Messages:
    953
    Likes Received:
    15
    very cool
     
  20. hiprabu123

    hiprabu123 New Member

    Joined:
    Feb 19, 2016
    Messages:
    24
    Likes Received:
    0