FEED Taylor Swift - Album of the Year - The 58th Annual Grammy Awards 16 Backhaul Feed 1080i Mpeg-ALANiS

Discussion in 'Interviews / TV shows / Others' started by KaiKawaii, Jan 18, 2018.

  1. KaiKawaii

    KaiKawaii Well-Known Member Uploader

    Joined:
    Jun 1, 2017
    Messages:
    480
    Likes Received:
    659
    [​IMG]
    [​IMG]
    [​IMG]
    Code:
    General
    ID                             : 1 (0x1)
    Complete name                  : D:\Taylor Swift - Album of the Year - The 58th Annual Grammy Awards 2016 Backhaul Feed 1080i Mpeg-2 4-2-2 26mbps MPA2.0-ALANiS.ts
    Format                         : MPEG-TS
    File size                      : 680 MiB
    Duration                       : 3 min 30 s
    Overall bit rate mode          : Variable
    Overall bit rate               : 27.0 Mb/s
    
    Video
    ID                             : 4113 (0x1011)
    Menu ID                        : 1 (0x1)
    Format                         : MPEG Video
    Format version                 : Version 2
    Format profile                 : 4:2:2@High
    Format settings, BVOP          : Yes
    Format settings, Matrix        : Default
    Format settings, picture struc : Frame
    Codec ID                       : 2
    Duration                       : 3 min 30 s
    Bit rate mode                  : Variable
    Bit rate                       : 25.3 Mb/s
    Maximum bit rate               : 26.6 Mb/s
    Width                          : 1 920 pixels
    Height                         : 1 080 pixels
    Display aspect ratio           : 16:9
    Frame rate                     : 29.970 (30000/1001) FPS
    Color space                    : YUV
    Chroma subsampling             : 4:2:2
    Bit depth                      : 8 bits
    Scan type                      : Interlaced
    Scan order                     : Top Field First
    Compression mode               : Lossy
    Bits/(Pixel*Frame)             : 0.406
    Time code of first frame       : 02:24:21;11
    Time code source               : Group of pictures header
    Stream size                    : 634 MiB (93%)
    
    Audio
    ID                             : 4352 (0x1100)
    Menu ID                        : 1 (0x1)
    Format                         : MPEG Audio
    Format version                 : Version 1
    Format profile                 : Layer 2
    Codec ID                       : 4
    Duration                       : 3 min 30 s
    Bit rate mode                  : Constant
    Bit rate                       : 384 kb/s
    Channel(s)                     : 2 channels
    Sampling rate                  : 48.0 kHz
    Compression mode               : Lossy
    Delay relative to video        : 6 ms
    Stream size                    : 9.66 MiB (1%)
    Language                       : English
    Credits to the original capper. :)
    PS: Picture updated May 22nd 2018.


    Hidden Content:
    You must reply before you can see the hidden data contained here.
     
    Last edited: May 22, 2018
    AndrewDiceClay likes this.
  2. Loading...


  3. Arifillah

    Arifillah [REQ]

    Joined:
    Oct 29, 2017
    Messages:
    948
    Likes Received:
    31
  4. Smythy

    Smythy Active Member

    Joined:
    Mar 15, 2017
    Messages:
    237
    Likes Received:
    201
    thank you
     
  5. ron

    ron Well-Known Member

    Joined:
    Apr 4, 2014
    Messages:
    578
    Likes Received:
    337
    Thank you !
     
  6. AndrewDiceClay

    AndrewDiceClay Member

    Joined:
    Jul 7, 2015
    Messages:
    358
    Likes Received:
    21
  7. nino.navy

    nino.navy Well-Known Member

    Joined:
    May 30, 2014
    Messages:
    2,982
    Likes Received:
    178
    thanks a lot
     
  8. mario

    mario Well-Known Member

    Joined:
    Oct 7, 2013
    Messages:
    535
    Likes Received:
    948
    thank you
     
  9. mario

    mario Well-Known Member

    Joined:
    Oct 7, 2013
    Messages:
    535
    Likes Received:
    948
    Do you have Out of the Woods(Grammy Awards 2016) in this quality
     
  10. Red

    Red Well-Known Member

    Joined:
    Oct 3, 2013
    Messages:
    257
    Likes Received:
    731
    thank you
     
  11. KaiKawaii

    KaiKawaii Well-Known Member Uploader

    Joined:
    Jun 1, 2017
    Messages:
    480
    Likes Received:
    659
  12. Kyle

    Kyle Member

    Joined:
    Jan 23, 2014
    Messages:
    103
    Likes Received:
    1
    thank you
     
  13. JimmySwifties

    JimmySwifties [Uploader] and [Requester]

    Joined:
    Mar 23, 2017
    Messages:
    219
    Likes Received:
    356
  14. Lesmo

    Lesmo Member

    Joined:
    Mar 15, 2017
    Messages:
    189
    Likes Received:
    19
    Thanks
     
  15. Marcasius

    Marcasius Member

    Joined:
    Oct 1, 2017
    Messages:
    36
    Likes Received:
    0
    Taylor! :3
     
  16. jnetow

    jnetow Member

    Joined:
    Dec 20, 2015
    Messages:
    56
    Likes Received:
    0
    thankss
     
  17. amecstar08

    amecstar08 New Member

    Joined:
    Apr 14, 2017
    Messages:
    28
    Likes Received:
    0
  18. luccas_bandeira

    luccas_bandeira Member

    Joined:
    Apr 9, 2018
    Messages:
    46
    Likes Received:
    1
    obigadaaa mana