HDTV Taylor Swift - 3X performances - iHeartradio Jingle Bell Ball 2017 1080i

Discussion in 'HD Live Performances' started by KaiKawaii, Apr 28, 2018.

  1. johymbim

    johymbim Member

    Joined:
    Jul 30, 2014
    Messages:
    659
    Likes Received:
    21
    thank you
     
  2. LARANJA

    LARANJA Member

    Joined:
    Aug 26, 2014
    Messages:
    232
    Likes Received:
    4
    Thank you
     
  3. tayrep8922

    tayrep8922 Member

    Joined:
    Mar 26, 2018
    Messages:
    108
    Likes Received:
    0
  4. dallyesss

    dallyesss New Member

    Joined:
    Jul 4, 2018
    Messages:
    6
    Likes Received:
    0
    thanks!
     
  5. theclimb

    theclimb Well-Known Member

    Joined:
    Dec 16, 2014
    Messages:
    1,478
    Likes Received:
    261
    Thankss
     
  6. okay1234

    okay1234 Member

    Joined:
    Sep 7, 2016
    Messages:
    301
    Likes Received:
    16
    thanks
    s
     
  7. 12wurzel

    12wurzel Active Member

    Joined:
    Oct 16, 2016
    Messages:
    654
    Likes Received:
    46
  8. Nito4k

    Nito4k Member

    Joined:
    Jan 12, 2018
    Messages:
    266
    Likes Received:
    3
    thanks
     
  9. okay1234

    okay1234 Member

    Joined:
    Sep 7, 2016
    Messages:
    301
    Likes Received:
    16
    thankss
     
  10. iiuure

    iiuure Member

    Joined:
    Feb 7, 2016
    Messages:
    94
    Likes Received:
    12
    thanks
     
  11. t-swift

    t-swift Member

    Joined:
    Dec 7, 2016
    Messages:
    82
    Likes Received:
    0
    thanks!
     
  12. Fabien Fournier

    Fabien Fournier Active Member

    Joined:
    Nov 14, 2013
    Messages:
    652
    Likes Received:
    76
    Thanks
     
  13. volta

    volta Member

    Joined:
    Jul 12, 2018
    Messages:
    57
    Likes Received:
    10
    [​IMG]
    Code:
    General
    ID                             : 0 (0x0)
    Complete name                  : D:\Downloads\Taylor Swift - iHeartRadio Jingle Ball 2017\1. Taylor Swift - ...Ready For It (iHeartRadio Jingle Ball 2017) 1080i HDTV DD2.0 H.264.ts
    Format                         : BDAV
    Format/Info                    : Blu-ray Video
    File size                      : 370 MiB
    Duration                       : 3 min 31 s
    Overall bit rate mode          : Variable
    Overall bit rate               : 14.6 Mb/s
    Maximum Overall bit rate       : 24.2 Mb/s
    FileExtension_Invalid          : m2ts mts ssif
    
    Video
    ID                             : 4113 (0x1011)
    Menu ID                        : 1 (0x1)
    Format                         : AVC
    Format/Info                    : Advanced Video Codec
    Format profile                 : Main@L4
    Format settings, CABAC         : Yes
    Format settings, RefFrames     : 4 frames
    Codec ID                       : 27
    Duration                       : 3 min 31 s
    Bit rate mode                  : Variable
    Bit rate                       : 13.7 Mb/s
    Maximum bit rate               : 20.0 Mb/s
    Width                          : 1 920 pixels
    Height                         : 1 080 pixels
    Display aspect ratio           : 16:9
    Frame rate                     : 29.970 (30000/1001) FPS
    Color space                    : YUV
    Chroma subsampling             : 4:2:0
    Bit depth                      : 8 bits
    Scan type                      : Interlaced
    Scan type, store method        : Separated fields
    Scan order                     : Top Field First
    Bits/(Pixel*Frame)             : 0.220
    Stream size                    : 345 MiB (93%)
    Color range                    : Limited
    Color primaries                : BT.709
    Transfer characteristics       : BT.709
    Matrix coefficients            : BT.709
    
    Audio
    ID                             : 4352 (0x1100)
    Menu ID                        : 1 (0x1)
    Format                         : AC-3
    Format/Info                    : Audio Coding 3
    Format settings, Endianness    : Big
    Codec ID                       : 129
    Duration                       : 3 min 31 s
    Bit rate mode                  : Constant
    Bit rate                       : 384 kb/s
    Channel(s)                     : 2 channels
    Channel positions              : Front: L R
    Sampling rate                  : 48.0 kHz
    Frame rate                     : 31.250 FPS (1536 SPF)
    Bit depth                      : 16 bits
    Compression mode               : Lossy
    Stream size                    : 9.68 MiB (3%)
    Service kind                   : Complete Main
    [/SPOILER]

    [​IMG]
    Code:
    General
    ID                             : 0 (0x0)
    Complete name                  : D:\Downloads\Taylor Swift - iHeartRadio Jingle Ball 2017\2. Taylor Swift feat. Ed Sheeran - End Game (iHeartRadio Jingle Ball 2017) 1080i HDTV DD2.0 H.264.ts
    Format                         : BDAV
    Format/Info                    : Blu-ray Video
    File size                      : 419 MiB
    Duration                       : 3 min 59 s
    Overall bit rate mode          : Variable
    Overall bit rate               : 14.7 Mb/s
    Maximum Overall bit rate       : 9 212 kb/s
    FileExtension_Invalid          : m2ts mts ssif
    
    Video
    ID                             : 4113 (0x1011)
    Menu ID                        : 1 (0x1)
    Format                         : AVC
    Format/Info                    : Advanced Video Codec
    Format profile                 : Main@L4
    Format settings, CABAC         : Yes
    Format settings, RefFrames     : 4 frames
    Codec ID                       : 27
    Duration                       : 3 min 59 s
    Bit rate mode                  : Variable
    Bit rate                       : 13.7 Mb/s
    Maximum bit rate               : 20.0 Mb/s
    Width                          : 1 920 pixels
    Height                         : 1 080 pixels
    Display aspect ratio           : 16:9
    Frame rate                     : 29.970 (30000/1001) FPS
    Color space                    : YUV
    Chroma subsampling             : 4:2:0
    Bit depth                      : 8 bits
    Scan type                      : Interlaced
    Scan type, store method        : Separated fields
    Scan order                     : Top Field First
    Bits/(Pixel*Frame)             : 0.220
    Stream size                    : 391 MiB (93%)
    Color range                    : Limited
    Color primaries                : BT.709
    Transfer characteristics       : BT.709
    Matrix coefficients            : BT.709
    
    Audio
    ID                             : 4352 (0x1100)
    Menu ID                        : 1 (0x1)
    Format                         : AC-3
    Format/Info                    : Audio Coding 3
    Format settings, Endianness    : Big
    Codec ID                       : 129
    Duration                       : 3 min 59 s
    Bit rate mode                  : Constant
    Bit rate                       : 384 kb/s
    Channel(s)                     : 2 channels
    Channel positions              : Front: L R
    Sampling rate                  : 48.0 kHz
    Frame rate                     : 31.250 FPS (1536 SPF)
    Bit depth                      : 16 bits
    Compression mode               : Lossy
    Stream size                    : 11.0 MiB (3%)
    Service kind                   : Complete Main

    [​IMG]
    Code:
    General
    ID                             : 0 (0x0)
    Complete name                  : D:\Downloads\Taylor Swift - iHeartRadio Jingle Ball 2017\3. Taylor Swift - Look What You Made Me Do (iHeartRadio Jingle Ball 2017) 1080i HDTV DD2.0 H.264.ts
    Format                         : MPEG-TS
    File size                      : 423 MiB
    Duration                       : 4 min 8 s
    Overall bit rate mode          : Variable
    Overall bit rate               : 14.3 Mb/s
    
    Video
    ID                             : 4113 (0x1011)
    Menu ID                        : 1 (0x1)
    Format                         : AVC
    Format/Info                    : Advanced Video Codec
    Format profile                 : Main@L4
    Format settings, CABAC         : Yes
    Format settings, RefFrames     : 4 frames
    Format settings, GOP           : M=4, N=32
    Codec ID                       : 27
    Duration                       : 4 min 9 s
    Bit rate mode                  : Variable
    Bit rate                       : 13.2 Mb/s
    Maximum bit rate               : 20.0 Mb/s
    Width                          : 1 920 pixels
    Height                         : 1 080 pixels
    Display aspect ratio           : 16:9
    Frame rate                     : 29.970 (30000/1001) FPS
    Color space                    : YUV
    Chroma subsampling             : 4:2:0
    Bit depth                      : 8 bits
    Scan type                      : Interlaced
    Scan type, store method        : Separated fields
    Scan order                     : Top Field First
    Bits/(Pixel*Frame)             : 0.212
    Stream size                    : 391 MiB (92%)
    Color range                    : Limited
    Color primaries                : BT.709
    Transfer characteristics       : BT.709
    Matrix coefficients            : BT.709
    
    Audio
    ID                             : 4352 (0x1100)
    Menu ID                        : 1 (0x1)
    Format                         : AC-3
    Format/Info                    : Audio Coding 3
    Format settings, Endianness    : Big
    Codec ID                       : 6
    Duration                       : 4 min 9 s
    Bit rate mode                  : Constant
    Bit rate                       : 384 kb/s
    Channel(s)                     : 2 channels
    Channel positions              : Front: L R
    Sampling rate                  : 48.0 kHz
    Frame rate                     : 31.250 FPS (1536 SPF)
    Bit depth                      : 16 bits
    Compression mode               : Lossy
    Delay relative to video        : 21 ms
    Stream size                    : 11.4 MiB (3%)
    Language                       : German
    Language, more info            : Clean effects
    Service kind                   : Complete Main

    ***Hidden content cannot be quoted.***

    Credits to the original capper. :)[/QUOTE]
     
  14. victor213salas

    victor213salas Member

    Joined:
    Apr 30, 2017
    Messages:
    37
    Likes Received:
    1
  15. Redman4321

    Redman4321 Member

    Joined:
    Mar 17, 2017
    Messages:
    88
    Likes Received:
    1
  16. thetruth

    thetruth Member

    Joined:
    Jan 7, 2014
    Messages:
    136
    Likes Received:
    4
    thanks
     
  17. ETAOI

    ETAOI Member

    Joined:
    Feb 13, 2017
    Messages:
    680
    Likes Received:
    3
    !!!!!!!!!!!!!!!!
     
  18. lucky_jess

    lucky_jess Member

    Joined:
    Nov 28, 2015
    Messages:
    813
    Likes Received:
    20
    Thank you
     
  19. Tstudio02

    Tstudio02 Member

    Joined:
    Apr 29, 2018
    Messages:
    28
    Likes Received:
    28
    Thanks :D
     
  20. vinniecesarone

    vinniecesarone Member

    Joined:
    Dec 7, 2016
    Messages:
    74
    Likes Received:
    12
    awesome!!!